<?xml version="1.0" standalone="no"?>
<!DOCTYPE svg PUBLIC "-//W3C//DTD SVG 1.1//EN" "http://www.w3.org/Graphics/SVG/1.1/DTD/svg11.dtd" >
<svg>
<metadata>
Created by FontForge 20090914 at Fri Oct 19 23:58:27 2012
 By www-data
Copyright (c) 1996 Microsoft Corporation. All rights reserved.
</metadata>
<defs>
<font id="TrebuchetMS" horiz-adv-x="1074" >
  <font-face 
    font-family="Trebuchet MS"
    font-weight="400"
    font-stretch="normal"
    units-per-em="2048"
    panose-1="2 11 6 3 2 2 2 2 2 4"
    ascent="1638"
    descent="-410"
    x-height="1071"
    cap-height="1464"
    bbox="-176 -537 2216 1931"
    underline-thickness="127"
    underline-position="-198"
    unicode-range="U+0020-U+F007"
  />
<missing-glyph horiz-adv-x="1024" 
d="M128 350v768h768v-768h-768zM256 478h512v512h-512v-512z" />
    <glyph glyph-name=".notdef" horiz-adv-x="1024" 
d="M128 350v768h768v-768h-768zM256 478h512v512h-512v-512z" />
    <glyph glyph-name="space" unicode=" " horiz-adv-x="617" 
 />
    <glyph glyph-name="exclam" unicode="!" horiz-adv-x="752" 
d="M413 382l-71 -0.000976562c-51.333 335.333 -77 568.333 -77 699v410h226v-409c0 -127.333 -26 -360.666 -78 -699.999zM384 280.999c41.333 0 76.666 -14.667 105.999 -44s44 -64.666 44 -105.999s-14.667 -76.833 -44 -106.5s-64.666 -44.5 -105.999 -44.5
s-76.666 14.833 -105.999 44.5s-44 65.167 -44 106.5s14.667 76.666 44 105.999s64.666 44 105.999 44z" />
    <glyph glyph-name="quotedbl" unicode="&#x22;" horiz-adv-x="665" 
d="M229 1086h-133l-24 381h184zM559 1086h-133l-24 381h184z" />
    <glyph glyph-name="numbersign" unicode="#" 
d="M879 947l-99 -393h161v-128h-194l-124 -446h-127l124 446h-297l-124 -446h-130l123 446h-155v128h188l99 393h-172v128h205l102 412h131l-103 -412h297l103 412h127l-103 -412h175v-128h-207zM455 947l-99 -393h297l99 393h-297z" />
    <glyph glyph-name="dollar" unicode="$" 
d="M458 -25c-46 2.66699 -103.997 14.3311 -173.997 34.998s-118 39.667 -144 57l72 184c34.667 -25.333 80.5 -47.666 137.5 -66.999s107.833 -29 152.5 -29c78 0 140.667 21.333 188 64s71 97 71 163c0 41.333 -6.83301 78 -20.5 110s-32.334 57.833 -56.001 77.5
s-77.5 49.167 -161.5 88.5l-118 55c-100 46.667 -169.833 102 -209.5 166s-59.5 141 -59.5 231c0 92.667 29.167 173.334 87.5 242.001s136.5 112 234.5 130v160h139v-153c143.333 -6 240.333 -32 291 -78l-59 -174c-26.667 19.333 -67.334 38 -122.001 56
s-105.334 27 -152.001 27c-68 0 -121.5 -19.333 -160.5 -58s-58.5 -88.334 -58.5 -149.001c0 -37.333 7 -71.333 21 -102s34 -56.667 60 -78s76.667 -50 152 -86l92 -43c104 -48.667 180 -108.167 228 -178.5s72 -160.5 72 -270.5c0 -90.667 -32.167 -170.167 -96.5 -238.5
s-153.5 -112.166 -267.5 -131.499v-231h-139v221z" />
    <glyph glyph-name="percent" unicode="%" horiz-adv-x="1229" 
d="M218 -20h-127l883 1511h126zM61 1162c0 98 27 177.333 81 238s122.667 91 206 91c82 0 147.5 -30 196.5 -90s73.5 -146 73.5 -258c0 -104 -26 -186.5 -78 -247.5s-119 -91.5 -201 -91.5c-185.333 0 -278 119.333 -278 358zM187 1152c0 -78 13.167 -138.499 39.5 -181.499
s60.833 -64.5 103.5 -64.5c108 0 162 81.667 162 245c0 158.667 -49 238 -147 238c-48.667 0 -87.167 -21.333 -115.5 -64s-42.5 -100.334 -42.5 -173.001zM601 338.001c0 98 27 177.333 81 238s122.667 91 206 91c82 0 147.5 -30 196.5 -90s73.5 -146 73.5 -258
c0 -104 -26 -186.5 -78 -247.5s-119 -91.5 -201 -91.5c-185.333 0 -278 119.333 -278 358zM727 328.001c0 -78 13.167 -138.499 39.5 -181.499s60.833 -64.5 103.5 -64.5c108 0 162 81.667 162 245c0 158.667 -49 238 -147 238c-48.667 0 -87.167 -21.333 -115.5 -64
s-42.5 -100.334 -42.5 -173.001z" />
    <glyph glyph-name="ampersand" unicode="&#x26;" horiz-adv-x="1446" 
d="M929 51c-96.667 -47.333 -213.334 -71.001 -350.001 -71.001c-139.333 0 -247 41.167 -323 123.5s-114 198.833 -114 349.5c0 77.333 11.5 144.333 34.5 201s65.167 115.334 126.5 176.001c-94 93.333 -141 190.333 -141 291c0 102 38.5 189.167 115.5 261.5
s180.167 108.5 309.5 108.5c137.333 0 243.333 -30.333 318 -91l-83 -154c-76 63.333 -144 95 -204 95c-177.333 0 -266 -80 -266 -240c0 -86.667 38.667 -160 116 -220h372v183l190 73v-259h249v-160h-249v-330c0 -92 12.333 -154.667 37 -188s67.334 -50 128.001 -50
c36 0 78.333 12.333 127 37l27 -177c-70 -20 -150 -30 -240 -30c-62 0 -122 23.667 -180 71zM840 313.999v403.999h-403c-63.333 -81.333 -95 -166.666 -95 -255.999c0 -208 101.667 -312 305 -312c90.667 0 158.667 16.333 204 49c-7.33301 30.667 -11 69 -11 115z" />
    <glyph glyph-name="quotesingle" unicode="'" horiz-adv-x="327" 
d="M229 1086h-133l-24 381h184z" />
    <glyph glyph-name="parenleft" unicode="(" horiz-adv-x="752" 
d="M618 1475v-83.001c-132 -190.667 -198 -469 -198 -835c0 -434.667 66 -728 198 -880v-105c-134.667 94 -239.167 228.833 -313.5 404.5s-111.5 369.834 -111.5 582.501c0 181.333 42.333 364.5 127 549.5s184 307.167 298 366.5z" />
    <glyph glyph-name="parenright" unicode=")" horiz-adv-x="752" 
d="M193 -428v105.001c132 152 198 445.333 198 880c0 366 -66 644.333 -198 835v83c114 -59.333 213.333 -181.5 298 -366.5s127 -368.167 127 -549.5c0 -212.667 -37.167 -406.834 -111.5 -582.501s-178.833 -310.5 -313.5 -404.5z" />
    <glyph glyph-name="asterisk" unicode="*" horiz-adv-x="752" 
d="M597 1127l-173 -3l158 -105l47 -62l-122 -104l-54 70l-82 159l-91 -162l-43 -64l-131 101l50 69l158 83l-176 27l-90 32l72 150l96 -37l125 -95l-63 205v79h176v-76l-60 -211l158 107l74 27l57 -161z" />
    <glyph glyph-name="plus" unicode="+" 
d="M611 706h349v-141h-349v-345h-141v345h-348v141h348v343h141v-343z" />
    <glyph glyph-name="comma" unicode="," horiz-adv-x="752" 
d="M224 -363l-50.999 72.002c114.667 94 172 174 172 240c0 29.333 -10 58.666 -30 87.999c-57.333 27.333 -86 66.666 -86 117.999c0 35.333 13.667 64.5 41 87.5s61.666 34.5 102.999 34.5c36.667 0 69.5 -16 98.5 -48s43.5 -69.333 43.5 -112
c0 -88.667 -18.5 -168.5 -55.5 -239.5s-115.5 -151.167 -235.5 -240.5z" />
    <glyph glyph-name="hyphen" unicode="-" horiz-adv-x="752" 
d="M159 506v175h428v-175h-428z" />
    <glyph glyph-name="hyphen" unicode="&#x2010;" horiz-adv-x="752" 
d="M159 506v175h428v-175h-428z" />
    <glyph glyph-name="period" unicode="." horiz-adv-x="752" 
d="M354 281c41.333 0 76.666 -14.667 105.999 -44s44 -64.666 44 -105.999s-14.667 -76.833 -44 -106.5s-64.666 -44.5 -105.999 -44.5s-76.666 14.833 -105.999 44.5s-44 65.167 -44 106.5s14.667 76.666 44 105.999s64.666 44 105.999 44z" />
    <glyph glyph-name="slash" unicode="/" 
d="M350 0h-161l531 1471h159z" />
    <glyph glyph-name="zero" unicode="0" 
d="M64 777c0 210.667 42.666 382.332 127.999 514.999s205.333 199 360 199c153.333 0 268.5 -55.333 345.5 -166s115.5 -304 115.5 -580c0 -237.333 -40.333 -424.166 -121 -560.499s-198.667 -204.5 -354 -204.5s-273.166 55 -353.499 165s-120.5 320.667 -120.5 632z
M263.999 758.998c0 -406 86.667 -609 260 -609c99.333 0 172.333 45 219 135s70 247.667 70 473c0 155.333 -9 269.333 -27 342s-47 127.667 -87 165s-90.667 56 -152 56c-188.667 0 -283 -187.333 -283 -562z" />
    <glyph glyph-name="one" unicode="1" 
d="M498 0v1123l-298 -186v187c75.333 38 155.5 90.333 240.5 157s150.833 130 197.5 190h60v-1471h-200z" />
    <glyph glyph-name="two" unicode="2" 
d="M69 0l-0.000976562 39.999l459 703c96 147.333 144 272.333 144 375c0 135.333 -76.333 203 -229 203c-54 0 -104.667 -14.167 -152 -42.5s-81.666 -64.166 -102.999 -107.499l-129 106c22.667 65.333 67.167 117.333 133.5 156s146.5 58 240.5 58
c140.667 0 250.667 -32.5 330 -97.5s119 -156.833 119 -275.5c0 -110 -52.667 -248.667 -158 -416l-329 -522h574v-180h-900z" />
    <glyph glyph-name="three" unicode="3" 
d="M109 104l96.001 153.999c65.333 -72 148 -108 248 -108c185.333 0 278 90.667 278 272c0 82.667 -27 149.834 -81 201.501s-125.667 77.5 -215 77.5h-16v162h9c169.333 0 254 74.667 254 224c0 156 -79.667 234 -239 234c-86.667 0 -155.667 -29 -207 -87l-89 136
c62 80.667 165.667 121 311 121c128 0 232.333 -34.167 313 -102.5s121 -155.833 121 -262.5c0 -81.333 -22.5 -153.333 -67.5 -216s-97.833 -104.667 -158.5 -126c84 -27.333 150.833 -73.833 200.5 -139.5s74.5 -145.167 74.5 -238.5c0 -136 -43 -241 -129 -315
s-206.667 -111 -362 -111c-65.333 0 -129.333 12.167 -192 36.5s-112.334 53.5 -149.001 87.5z" />
    <glyph glyph-name="four" unicode="4" 
d="M882 399v-399h-190v399h-667v114l787 958h70v-918h148v-154h-148zM692 1072l-430 -519h430v519z" />
    <glyph glyph-name="five" unicode="5" 
d="M232 715l-68.001 47v709h729v-170h-539v-356c49.333 36.667 112 55 188 55c136 0 239.833 -40.667 311.5 -122s107.5 -197 107.5 -347c0 -367.333 -163.667 -551 -491 -551c-136.667 0 -250 38 -340 114l77 167c90.667 -74 178 -111 262 -111c188 0 282 117.333 282 352
c0 218.667 -92.667 328 -278 328c-89.333 0 -169.666 -38.333 -240.999 -115z" />
    <glyph glyph-name="six" unicode="6" 
d="M672 1491l96.998 -107.001c-58.667 -23.333 -143.5 -102.166 -254.5 -236.499s-172.5 -237.833 -184.5 -310.5c55.333 53.333 132.333 80 231 80c129.333 0 233 -41.333 311 -124s117 -196.334 117 -341.001c0 -143.333 -40.167 -258.666 -120.5 -345.999
s-181.166 -131 -302.499 -131c-321.333 0 -482 213 -482 639c0 177.333 62.833 358.833 188.5 544.5s258.834 296.5 399.501 332.5zM293.998 457.999c0 -208.667 85.667 -312.999 257 -312.999c72 0 128.833 27.167 170.5 81.5s62.5 126.166 62.5 215.499
c0 92.667 -22 166.667 -66 222s-100.667 83 -170 83c-169.333 0 -254 -96.333 -254 -289z" />
    <glyph glyph-name="seven" unicode="7" 
d="M428 0l-222.001 -0.000976562c49.333 156.667 132.333 363.834 249 621.501s223.334 477.5 320.001 659.5h-691v190h950v-78l-129 -254l-136 -283l-139 -314c-45.333 -106.667 -85 -205.667 -119 -297s-61.667 -173 -83 -245z" />
    <glyph glyph-name="eight" unicode="8" 
d="M353 815c-62 33.333 -112.669 79.666 -152.002 138.999s-59 120.666 -59 183.999c0 108.667 36.833 194.667 110.5 258s168.834 95 285.501 95c126 0 223.667 -31.667 293 -95s104 -149.666 104 -258.999c0 -64 -21 -129.167 -63 -195.5s-90.667 -115.166 -146 -146.499
c176 -98.667 264 -228.334 264 -389.001c0 -135.333 -40.667 -240.166 -122 -314.499s-193 -111.5 -335 -111.5c-296 0 -444 142 -444 426c0 82 25.333 162.667 76 242s113.334 135 188.001 167zM597.998 877c90.667 85.333 136 173.667 136 265
c0 54.667 -18.167 98.167 -54.5 130.5s-83.5 48.5 -141.5 48.5c-130.667 0 -196 -60.333 -196 -181c0 -89.333 85.333 -177 256 -263zM508.998 728.001c-146.667 -79.333 -220 -186.667 -220 -322c0 -72.667 22.667 -133.5 68 -182.5s104 -73.5 176 -73.5
c74.667 0 136.167 24 184.5 72s72.5 109.333 72.5 184c0 54 -16.667 104.833 -50 152.5s-110.333 104.167 -231 169.5z" />
    <glyph glyph-name="nine" unicode="9" 
d="M391 -25l-96.998 107c58 23.333 142.833 102 254.5 236s173.167 237.333 184.5 310c-54.667 -52.667 -131.667 -79 -231 -79c-129.333 0 -233 41.333 -311 124s-117 196.334 -117 341.001c0 143.333 40.167 258.666 120.5 345.999s181.166 131 302.499 131
c321.333 0 482 -213 482 -639c0 -177.333 -62.833 -358.833 -188.5 -544.5s-258.834 -296.5 -399.501 -332.5zM769.002 1008c0 208.667 -85.667 312.999 -257 312.999c-72 0 -128.833 -27.167 -170.5 -81.5s-62.5 -126.166 -62.5 -215.499c0 -92.667 22 -166.667 66 -222
s100.667 -83 170 -83c169.333 0 254 96.333 254 289z" />
    <glyph glyph-name="colon" unicode=":" horiz-adv-x="752" 
d="M354 1091c41.333 0 76.666 -14.667 105.999 -44s44 -64.666 44 -105.999s-14.667 -76.833 -44 -106.5s-64.666 -44.5 -105.999 -44.5s-76.666 14.833 -105.999 44.5s-44 65.167 -44 106.5s14.667 76.666 44 105.999s64.666 44 105.999 44zM354 281
c41.333 0 76.666 -14.667 105.999 -44s44 -64.666 44 -105.999s-14.667 -76.833 -44 -106.5s-64.666 -44.5 -105.999 -44.5s-76.666 14.833 -105.999 44.5s-44 65.167 -44 106.5s14.667 76.666 44 105.999s64.666 44 105.999 44z" />
    <glyph glyph-name="semicolon" unicode=";" horiz-adv-x="752" 
d="M354 1091c41.333 0 76.666 -14.667 105.999 -44s44 -64.666 44 -105.999s-14.667 -76.833 -44 -106.5s-64.666 -44.5 -105.999 -44.5s-76.666 14.833 -105.999 44.5s-44 65.167 -44 106.5s14.667 76.666 44 105.999s64.666 44 105.999 44zM224 -363l-50.999 72.002
c114.667 94 172 174 172 240c0 29.333 -10 58.666 -30 87.999c-57.333 27.333 -86 66.666 -86 117.999c0 35.333 13.667 64.5 41 87.5s61.666 34.5 102.999 34.5c36.667 0 69.5 -16 98.5 -48s43.5 -69.333 43.5 -112c0 -88.667 -18.5 -168.5 -55.5 -239.5
s-115.5 -151.167 -235.5 -240.5z" />
    <glyph glyph-name="less" unicode="&#x3c;" 
d="M889 218l-739 358v123l739 354v-161l-571 -255l571 -258v-161z" />
    <glyph glyph-name="equal" unicode="=" 
d="M960 876v-141h-838v141h838zM960 536v-141h-838v141h838z" />
    <glyph glyph-name="greater" unicode="&#x3e;" 
d="M889 576l-739 -358v161l571 258l-571 255v161l739 -354v-123z" />
    <glyph glyph-name="question" unicode="?" horiz-adv-x="752" 
d="M366 429l-131.998 0.000976562c-22.667 63.333 -34 109 -34 137c0 48 8.83301 97 26.5 147s57.667 109.833 120 179.5s104.166 123.167 125.499 160.5s32 73.666 32 108.999c0 117.333 -71 176 -213 176c-68 0 -127.333 -24.333 -178 -73l-73 143
c67.333 55.333 167.666 83 300.999 83c100 0 183.167 -28.333 249.5 -85s99.5 -132.334 99.5 -227.001c0 -48 -8.5 -94.167 -25.5 -138.5s-43.167 -85.166 -78.5 -122.499l-146 -156c-58.667 -72 -88 -152.667 -88 -242c0 -14 4.66699 -44.333 14 -91zM324.002 281.001
c41.333 0 76.666 -14.667 105.999 -44s44 -64.666 44 -105.999s-14.667 -76.833 -44 -106.5s-64.666 -44.5 -105.999 -44.5s-76.666 14.833 -105.999 44.5s-44 65.167 -44 106.5s14.667 76.666 44 105.999s64.666 44 105.999 44z" />
    <glyph glyph-name="at" unicode="@" horiz-adv-x="1578" 
d="M1176 116c30.667 -11.333 75.665 -30.666 134.998 -57.999c-128 -128 -296.667 -192 -506 -192c-213.333 0 -384.166 65.667 -512.499 197s-192.5 304 -192.5 518c0 217.333 65 395.666 195 534.999s300 209 510 209c202 0 364.667 -60.333 488 -181
s185 -281.667 185 -483c0 -113.333 -29.833 -209.5 -89.5 -288.5s-138.5 -118.5 -236.5 -118.5c-106 0 -182.667 23.333 -230 70c-56.667 -52 -123.667 -78 -201 -78c-71.333 0 -129 19.5 -173 58.5s-66 91.5 -66 157.5c0 84 36 148 108 192s169.333 66 292 66
c-10 98 -49.333 147 -118 147c-70 0 -125.333 -18.667 -166 -56l-48 99c54.667 40.667 121.334 61 200.001 61c185.333 0 278 -106.333 278 -319v-239c48 -35.333 88.667 -53 122 -53c124 0 186 101.333 186 304c0 154 -50 282.333 -150 385s-227 154 -381 154
c-168.667 0 -304.667 -58.333 -408 -175s-155 -265.667 -155 -447c0 -178 51.167 -321.333 153.5 -430s238.833 -163 409.5 -163c154 0 277.667 42.667 371 128zM881.998 393v234h-51c-130 0 -195 -53.333 -195 -160c0 -36 12.667 -65.667 38 -89s57 -35 95 -35
c42 0 79.667 16.667 113 50z" />
    <glyph glyph-name="A" unicode="A" horiz-adv-x="1208" 
d="M982 0l-101 309h-545l-108 -309h-224l595 1485h53l552 -1485h-222zM616 1101l-227 -645h435z" />
    <glyph glyph-name="B" unicode="B" horiz-adv-x="1159" 
d="M568 0l-418 0.000976562v1465c178 8.66699 306.333 13 385 13c144.667 0 256.667 -31.167 336 -93.5s119 -151.5 119 -267.5c0 -68 -25.333 -130 -76 -186s-106.667 -91 -168 -105c116 -28 200.5 -74.333 253.5 -139s79.5 -152.667 79.5 -264
c0 -128.667 -47.167 -231.334 -141.5 -308.001s-217.5 -115 -369.5 -115zM350 1305l0.000976562 -421c42 -4 94 -6 156 -6c189.333 0 284 77 284 231c0 135.333 -87 203 -261 203c-66.667 0 -126.334 -2.33301 -179.001 -7zM350.001 729.001l-0.000976562 -558.999
c68.667 -6.66699 121.334 -10 158.001 -10c125.333 0 216.833 23.5 274.5 70.5s86.5 121.833 86.5 224.5c0 95.333 -27.5 165.666 -82.5 210.999s-146.833 68 -275.5 68z" />
    <glyph glyph-name="C" unicode="C" horiz-adv-x="1225" 
d="M1085 1411l-66.999 -170.999c-64 46.667 -164.667 70 -302 70c-128.667 0 -231.834 -55.333 -309.501 -166s-116.5 -253.334 -116.5 -428.001c0 -166.667 39.833 -301.834 119.5 -405.501s182.5 -155.5 308.5 -155.5c137.333 0 243 48.667 317 146l110 -153
c-116 -115.333 -265.333 -173 -448 -173c-191.333 0 -342 69 -452 207s-165 320 -165 546c0 218.667 58.667 400.334 176 545.001s269 217 455 217c159.333 0 284 -26.333 374 -79z" />
    <glyph glyph-name="D" unicode="D" horiz-adv-x="1256" 
d="M445 0h-295v1465c188 6.66699 308.333 10 361 10c204.667 0 366.667 -62.167 486 -186.5s179 -289.833 179 -496.5c0 -528 -243.667 -792 -731 -792zM350 1285l0.000976562 -1095c44.667 -6.66699 100 -10 166 -10c140 0 250 52.5 330 157.5s120 250.833 120 437.5
c0 346.667 -155.667 520 -467 520c-18.667 0 -68.334 -3.33301 -149.001 -10z" />
    <glyph glyph-name="E" unicode="E" horiz-adv-x="1097" 
d="M350 1285v-407h484v-170h-484v-528h664v-180h-864v1465h875v-180h-675z" />
    <glyph glyph-name="F" unicode="F" horiz-adv-x="1075" 
d="M350 1285v-407h515v-170h-515v-708h-200v1465h905v-180h-705z" />
    <glyph glyph-name="G" unicode="G" horiz-adv-x="1385" 
d="M1165 1363l-83 -165.001c-100.667 74.667 -199.334 112 -296.001 112c-153.333 0 -274.333 -54 -363 -162s-133 -251 -133 -429c0 -169.333 43.5 -305.666 130.5 -408.999s205.5 -155 355.5 -155c106.667 0 193 32 259 96v343h-203v170h403v-638
c-53.333 -45.333 -127.666 -81.833 -222.999 -109.5s-188 -41.5 -278 -41.5c-202 0 -361.5 68.5 -478.5 205.5s-175.5 319.167 -175.5 546.5c0 226.667 64.167 410.5 192.5 551.5s301.5 211.5 519.5 211.5c152.667 0 277 -42.333 373 -127z" />
    <glyph glyph-name="H" unicode="H" horiz-adv-x="1340" 
d="M990 0v708h-640v-708h-200v1465h200v-587h640v587h200v-1465h-200z" />
    <glyph glyph-name="I" unicode="I" horiz-adv-x="570" 
d="M185 0v1465h200v-1465h-200z" />
    <glyph glyph-name="J" unicode="J" horiz-adv-x="976" 
d="M49 293h175.001c16 -88.667 69 -133 159 -133c89.333 0 152.166 19.167 188.499 57.5s54.5 145.5 54.5 321.5v926h200v-918c0 -200 -32.333 -344.5 -97 -433.5s-179.667 -133.5 -345 -133.5c-95.333 0 -173.5 28.333 -234.5 85s-94.5 132.667 -100.5 228z" />
    <glyph glyph-name="K" unicode="K" horiz-adv-x="1179" 
d="M958 0l-413 674l-195 -277v-397h-200v1465h200v-797l544 797h223l-438 -635l500 -830h-221z" />
    <glyph glyph-name="L" unicode="L" horiz-adv-x="1037" 
d="M150 0v1465h200v-1285h662v-180h-862z" />
    <glyph glyph-name="M" unicode="M" horiz-adv-x="1453" 
d="M1253 0l-174 941l-320 -961h-50l-329 961l-170 -941h-190l274 1465h91l349 -1069l322 1069h90l297 -1465h-190z" />
    <glyph glyph-name="N" unicode="N" horiz-adv-x="1307" 
d="M1097 -20l-757 1071v-1051h-190v1465h80l737 -1013v1013h190v-1485h-60z" />
    <glyph glyph-name="O" unicode="O" horiz-adv-x="1380" 
d="M80 745c0 212 53.1689 389.333 159.502 532s249.833 214 430.5 214c203.333 0 359.166 -65.667 467.499 -197s162.5 -314.333 162.5 -549c0 -240.667 -54.333 -429.167 -163 -565.5s-264.334 -204.5 -467.001 -204.5c-184.667 0 -329.167 72 -433.5 216
s-156.5 328.667 -156.5 554zM290.002 745c0 -168 33.166 -308.333 99.499 -421s159.833 -169 280.5 -169c136.667 0 240.834 51.667 312.501 155s107.5 248.333 107.5 435c0 377.333 -140 566 -420 566c-124 0 -218.333 -50.667 -283 -152s-97 -239.333 -97 -414z" />
    <glyph glyph-name="P" unicode="P" horiz-adv-x="1142" 
d="M350 564l0.000976562 -564h-200v1465c151.333 6.66699 242.666 10 273.999 10c425.333 0 638 -142.333 638 -427c0 -329.333 -188 -494 -564 -494c-22.667 0 -72 3.33301 -148 10zM350.001 1285l-0.000976562 -541c84.667 -6.66699 129.334 -10 134.001 -10
c248 0 372 97.667 372 293c0 178.667 -132.333 268 -397 268c-26.667 0 -63 -3.33301 -109 -10z" />
    <glyph glyph-name="Q" unicode="Q" horiz-adv-x="1384" 
d="M1520 -108l-29.999 -195c-349.333 0 -578.333 97 -687 291c-20.667 -8.66699 -65 -13 -133 -13c-184.667 0 -329.167 72 -433.5 216s-156.5 328.667 -156.5 554c0 211.333 53 388.5 159 531.5s249.667 214.5 431 214.5c203.333 0 359.166 -65.667 467.499 -197
s162.5 -314.333 162.5 -549c0 -336.667 -100.667 -567.667 -302 -693c72.667 -106.667 194.667 -160 366 -160h156zM670.001 1311c-124 0 -218.332 -50.667 -282.999 -152s-97 -239.333 -97 -414c0 -168 33.167 -308.333 99.5 -421s159.833 -169 280.5 -169
c137.333 0 241.666 52.167 312.999 156.5s107 248.833 107 433.5c0 377.333 -140 566 -420 566z" />
    <glyph glyph-name="R" unicode="R" horiz-adv-x="1192" 
d="M963 0l-390.998 629c-44.667 0 -115.334 3.33301 -212.001 10v-639h-200v1465c7.33301 0 59.166 2.5 155.499 7.5s166.5 7.5 210.5 7.5c352 0 528 -140 528 -420c0 -92 -28.333 -174.833 -85 -248.5s-124 -119.5 -202 -137.5l425 -674h-229zM360.002 1285
l0.000976562 -476c48 -6.66699 94.667 -10 140 -10c120 0 207.333 19.333 262 58s82 107.667 82 207c0 82 -29.333 141 -88 177s-151.334 54 -278.001 54c-20 0 -59.333 -3.33301 -118 -10z" />
    <glyph glyph-name="S" unicode="S" horiz-adv-x="985" 
d="M84 67l73.0029 184.002c37.333 -27.333 83.833 -50.166 139.5 -68.499s105.5 -27.5 149.5 -27.5c78 0 140.667 21.333 188 64s71 97 71 163c0 49.333 -13.167 95.166 -39.5 137.499s-92.5 88.5 -198.5 138.5l-118 55c-100 46.667 -169.833 102 -209.5 166
s-59.5 141 -59.5 231c0 109.333 38.667 200 116 272s176.666 108 297.999 108c162 0 274.667 -26.333 338 -79l-59 -174c-26.667 19.333 -67.334 38 -122.001 56s-105.334 27 -152.001 27c-68 0 -121.5 -19.333 -160.5 -58s-58.5 -88.334 -58.5 -149.001
c0 -37.333 7 -71.333 21 -102s33.5 -56.334 58.5 -77.001s76.167 -49.667 153.5 -87l120 -57c100 -47.333 170.167 -103.833 210.5 -169.5s60.5 -149.167 60.5 -250.5c0 -110 -44.167 -203.333 -132.5 -280s-206.5 -115 -354.5 -115c-130 0 -241 30.667 -333 92z" />
    <glyph glyph-name="T" unicode="T" horiz-adv-x="1189" 
d="M684 1285v-1285h-200v1285h-466v180h1153v-180h-487z" />
    <glyph glyph-name="U" unicode="U" horiz-adv-x="1328" 
d="M150 1465h199.998v-1003c0 -89.333 28.333 -162.833 85 -220.5s131.667 -86.5 225 -86.5c98.667 0 176.334 28 233.001 84s85 132 85 228v998h200v-1019c0 -148 -46.167 -263.5 -138.5 -346.5s-218.166 -124.5 -377.499 -124.5c-164 0 -290.333 40.667 -379 122
s-133 198 -133 350v1018z" />
    <glyph glyph-name="V" unicode="V" horiz-adv-x="1203" 
d="M660 -20h-101l-546 1485h222l377 -1079l363 1079h215z" />
    <glyph glyph-name="W" unicode="W" horiz-adv-x="1745" 
d="M1276 -20h-63l-349 1010l-326 -1010h-63l-462 1485h208l294 -1023l322 1023h70l318 -1021l299 1021h208z" />
    <glyph glyph-name="X" unicode="X" horiz-adv-x="1140" 
d="M915 0l-364 588l-336 -588h-202l432 760l-397 706l197 -1l313 -554l345 554h201l-455 -709l478 -756h-212z" />
    <glyph glyph-name="Y" unicode="Y" horiz-adv-x="1168" 
d="M685 656v-656h-200v656l-472 809h206l365 -640l365 640h206z" />
    <glyph glyph-name="Z" unicode="Z" horiz-adv-x="1127" 
d="M100 0v50l630 1235h-620v180h895v-50l-632 -1235h654v-180h-927z" />
    <glyph glyph-name="bracketleft" unicode="[" horiz-adv-x="752" 
d="M202 -420v1930h463v-170h-263v-1590h263v-170h-463z" />
    <glyph glyph-name="backslash" unicode="\" horiz-adv-x="728" 
d="M512 0l-515 1471h142l516 -1471h-143z" />
    <glyph glyph-name="bracketright" unicode="]" horiz-adv-x="752" 
d="M550 -420h-463v170h263v1590h-263v170h463v-1930z" />
    <glyph glyph-name="asciicircum" unicode="^" 
d="M763 907l-244 448l-248 -452h-122l318 568h107l316 -564h-127z" />
    <glyph glyph-name="underscore" unicode="_" 
d="M-8 -254v129h1085v-129h-1085z" />
    <glyph glyph-name="grave" unicode="`" 
d="M559 1285l-226 333h197l169 -333h-140z" />
    <glyph glyph-name="a" unicode="a" horiz-adv-x="1076" 
d="M740 123c-76 -95.333 -192.333 -143 -349 -143c-84 0 -156.833 30.5 -218.5 91.5s-92.5 136.833 -92.5 227.5c0 108.667 47.5 200.5 142.5 275.5s216.167 112.5 363.5 112.5c40 0 85.333 -8.66699 136 -26c0 173.333 -77.333 260 -232 260c-118.667 0 -210 -32 -274 -96
l-80 159c36 29.333 85.833 54.5 149.5 75.5s124.5 31.5 182.5 31.5c155.333 0 268.166 -35.333 338.499 -106s105.5 -183 105.5 -337v-384c0 -94 28 -156.667 84 -188v-95c-77.333 0 -135.166 11 -173.499 33s-65.833 58.333 -82.5 109zM722 526
c-60 13.333 -102 19.999 -126 19.999c-96 0 -174.333 -24.667 -235 -74s-91 -107.666 -91 -174.999c0 -111.333 65.667 -167 197 -167c96 0 181 45.667 255 137v259z" />
    <glyph glyph-name="b" unicode="b" horiz-adv-x="1141" 
d="M297 77l-67 -97.001h-95v1530h190v-518c18 24.667 51.833 47.334 101.5 68.001s98.5 31 146.5 31c146.667 0 265.5 -50.667 356.5 -152s136.5 -229.333 136.5 -384c0 -178.667 -45.667 -319.167 -137 -421.5s-215 -153.5 -371 -153.5c-50.667 0 -100.5 9.5 -149.5 28.5
s-86.167 41.833 -111.5 68.5zM325 846.999l0.000976562 -618c0 -10.667 23.667 -28.167 71 -52.5s83.333 -36.5 108 -36.5c129.333 0 222 31 278 93s84 166 84 312c0 121.333 -32.667 216 -98 284s-153.333 102 -264 102c-23.333 0 -55.833 -10 -97.5 -30
s-68.834 -38 -81.501 -54z" />
    <glyph glyph-name="c" unicode="c" horiz-adv-x="1014" 
d="M943 984l-94.001 -133.999c-19.333 19.333 -53.5 37.666 -102.5 54.999s-97.167 26 -144.5 26c-103.333 0 -185.333 -36.167 -246 -108.5s-91 -171.5 -91 -297.5c0 -125.333 31 -220.833 93 -286.5s148 -98.5 258 -98.5c85.333 0 171.333 33 258 99l75 -160
c-102 -66 -228.333 -99 -379 -99c-146 0 -266.667 49 -362 147s-143 230.667 -143 398c0 170.667 49.5 307.667 148.5 411s234.5 155 406.5 155c55.333 0 115.333 -11.667 180 -35s112.334 -47.333 143.001 -72z" />
    <glyph glyph-name="d" unicode="d" horiz-adv-x="1141" 
d="M814 1v78.999c-66 -66 -162 -99 -288 -99c-134 0 -242.667 48 -326 144s-125 224 -125 384c0 160.667 48 297.834 144 411.501s210.333 170.5 343 170.5c110.667 0 194.667 -26 252 -78v497h190v-1509h-190zM814 822.999c-48 72 -113.667 108 -197 108
c-102 0 -184.5 -38 -247.5 -114s-94.5 -172.667 -94.5 -290c0 -258 117.333 -387 352 -387c30 0 66 9.5 108 28.5s68.333 39.167 79 60.5v594z" />
    <glyph glyph-name="e" unicode="e" horiz-adv-x="1117" 
d="M1037 517l-772.002 -0.00195312c0 -125.333 34.333 -221.666 103 -288.999c60.667 -58.667 138.667 -88 234 -88c108.667 0 199.334 31.667 272.001 95l80 -137c-29.333 -29.333 -74.333 -54.666 -135 -75.999c-76 -28 -160.667 -42 -254 -42
c-134.667 0 -249 45.667 -343 137c-104.667 100.667 -157 236 -157 406c0 176.667 53.667 318.334 161 425.001c96 95.333 209.667 143 341 143c152.667 0 272.334 -43 359.001 -129c84 -82.667 126 -192.334 126 -329.001c0 -42 -5 -80.667 -15 -116zM575.998 930.998
c-84.667 0 -155.666 -27.333 -212.999 -82c-54.667 -52 -85.667 -116.667 -93 -194h593c0 76.667 -24 140.667 -72 192c-52.667 56 -124.334 84 -215.001 84z" />
    <glyph glyph-name="f" unicode="f" horiz-adv-x="757" 
d="M714 1340c-38.667 13.333 -74.666 20 -107.999 20c-58 0 -105.833 -22 -143.5 -66s-56.5 -99.667 -56.5 -167c0 -18 1.66699 -36.667 5 -56h218v-160h-218v-911h-190v911h-156v160h156c0 136.667 33.667 244 101 322s156.333 117 267 117
c55.333 0 114.666 -10 177.999 -30z" />
    <glyph glyph-name="g" unicode="g" horiz-adv-x="1028" 
d="M96 -293l102.998 151.998c110.667 -74 212.667 -111 306 -111c86 0 153.833 14.833 203.5 44.5s74.5 66.5 74.5 110.5c0 86.667 -62.667 130 -188 130c-21.333 0 -60 -5.33301 -116 -16s-99.667 -16 -131 -16c-152 0 -228 57.333 -228 172
c0 35.333 17.833 67.333 53.5 96s79.834 49.334 132.501 62.001c-150.667 70.667 -226 193.334 -226 368.001c0 112 39 205.333 117 280s174.333 112 289 112c105.333 0 187.666 -21.667 246.999 -65l95 114l124 -117l-114 -86c48.667 -63.333 73 -146 73 -248
c0 -108 -33.667 -198.667 -101 -272s-155.666 -115.333 -264.999 -126l-157 -16c-18.667 -2 -43.667 -9.16699 -75 -21.5s-47 -28.5 -47 -48.5c0 -27.333 32.667 -41 98 -41c28.667 0 73.334 5.16699 134.001 15.5s105.667 15.5 135 15.5
c105.333 0 187.5 -25.167 246.5 -75.5s88.5 -120.166 88.5 -209.499c0 -98.667 -44.167 -178.334 -132.5 -239.001s-200.166 -91 -335.499 -91c-69.333 0 -142.333 12.333 -219 37s-138.334 54.667 -185.001 90zM498.998 937.998c-66 0 -119.833 -23.333 -161.5 -70
s-62.5 -103.334 -62.5 -170.001c0 -74.667 20.167 -136.5 60.5 -185.5s94.833 -73.5 163.5 -73.5c67.333 0 120 23.833 158 71.5s57 110.167 57 187.5c0 66.667 -20.5 123.334 -61.5 170.001s-92.167 70 -153.5 70z" />
    <glyph glyph-name="h" unicode="h" horiz-adv-x="1119" 
d="M795 0l0.000976562 673.001c0 80 -19.667 143 -59 189s-94.666 69 -165.999 69c-46 0 -92.167 -13.5 -138.5 -40.5s-81.833 -58.5 -106.5 -94.5v-796h-190v1510h190v-557c25.333 39.333 66.166 72.166 122.499 98.499s114.5 39.5 174.5 39.5
c113.333 0 202.166 -37.333 266.499 -112s96.5 -176.667 96.5 -306v-673h-190z" />
    <glyph glyph-name="i" unicode="i" horiz-adv-x="584" 
d="M331 1476c32.667 0 60.499 -11.501 83.499 -34.501s34.5 -50.5 34.5 -82.5c0 -32.667 -11.5 -60.5 -34.5 -83.5s-50.833 -34.5 -83.5 -34.5c-32 0 -59.5 11.5 -82.5 34.5s-34.5 50.833 -34.5 83.5s11.333 60.334 34 83.001s50.334 34 83.001 34zM226.999 -0.000976562
v911h-147v160h337v-1071h-190z" />
    <glyph glyph-name="j" unicode="j" horiz-adv-x="751" 
d="M428 1476c32.667 0 60.5 -11.501 83.5 -34.501s34.5 -50.5 34.5 -82.5c0 -32.667 -11.5 -60.5 -34.5 -83.5s-50.833 -34.5 -83.5 -34.5s-60.334 11.5 -83.001 34.5s-34 50.833 -34 83.5s11.333 60.334 34 83.001s50.334 34 83.001 34zM18 -420.001l0.000976562 169.998
c130.667 0 220.167 19.833 268.5 59.5s72.5 104.834 72.5 195.501v906h-213v160h403v-1062c0 -147.333 -43.333 -255.666 -130 -324.999s-220.334 -104 -401.001 -104z" />
    <glyph glyph-name="k" unicode="k" horiz-adv-x="1033" 
d="M827 0l-336 536l-166 -171v-365h-190v1510h190v-937l410 498h222l-343 -407l419 -664h-206z" />
    <glyph glyph-name="l" unicode="l" horiz-adv-x="604" 
d="M150 303v1207h190v-1175c0 -57.333 16.5 -102.5 49.5 -135.5s76.167 -49.5 129.5 -49.5v-170c-246 0 -369 107.667 -369 323z" />
    <glyph glyph-name="m" unicode="m" horiz-adv-x="1700" 
d="M1375 0v678c0 168.667 -73 253 -219 253c-46 0 -89 -14.167 -129 -42.5s-67.333 -60.5 -82 -96.5v-792h-190v761c0 52.667 -19.833 94.167 -59.5 124.5s-92.167 45.5 -157.5 45.5c-38 0 -78.5 -14.667 -121.5 -44s-73.5 -61.666 -91.5 -96.999v-790h-190v1071h124
l63 -124c73.333 96 165 144 275 144c153.333 0 260.666 -47.667 321.999 -143c21.333 40.667 61 74.667 119 102s117.667 41 179 41c110.667 0 196.334 -32.833 257.001 -98.5s91 -157.834 91 -276.501v-716h-190z" />
    <glyph glyph-name="n" unicode="n" horiz-adv-x="1119" 
d="M794 0l-0.00195312 623c0 114 -17.167 193.833 -51.5 239.5s-91.833 68.5 -172.5 68.5c-43.333 0 -88.666 -13 -135.999 -39s-83.666 -58 -108.999 -96v-796h-190v1071h130l60 -138c62.667 105.333 165 158 307 158c234.667 0 352 -142.667 352 -428v-663h-190z" />
    <glyph glyph-name="o" unicode="o" horiz-adv-x="1099" 
d="M65 538c0 165.333 44.5 298.833 133.5 400.5s206.167 152.5 351.5 152.5c153.333 0 272.333 -48.833 357 -146.5s127 -233.167 127 -406.5c0 -172.667 -43.333 -308.834 -130 -408.501s-204.667 -149.5 -354 -149.5c-152.667 0 -271.667 50.333 -357 151
s-128 236.334 -128 407.001zM265 538c0 -268.667 95.001 -403 285.001 -403c88.667 0 158.167 36 208.5 108s75.5 170.333 75.5 295c0 265.333 -94.667 398 -284 398c-86.667 0 -155.834 -35.333 -207.501 -106s-77.5 -168 -77.5 -292z" />
    <glyph glyph-name="p" unicode="p" horiz-adv-x="1141" 
d="M325 59v-478.999h-190v1491h190v-88c72 72 159 108 261 108c152 0 270.333 -47.333 355 -142s127 -233.334 127 -416.001c0 -162.667 -42.667 -295.5 -128 -398.5s-208.666 -154.5 -369.999 -154.5c-45.333 0 -93.833 8 -145.5 24s-84.834 34.333 -99.501 55z
M325 840.001l0.000976562 -624c12 -18 37.333 -35.167 76 -51.5s76.334 -24.5 113.001 -24.5c236 0 354 133.333 354 400c0 135.333 -28 234.333 -84 297s-145.667 94 -269 94c-26.667 0 -59.334 -9.33301 -98.001 -28s-69.334 -39.667 -92.001 -63z" />
    <glyph glyph-name="q" unicode="q" horiz-adv-x="1141" 
d="M821 -420v483.001c-55.333 -55.333 -148 -83 -278 -83c-146 0 -260.5 48.833 -343.5 146.5s-124.5 233.167 -124.5 406.5c0 171.333 47.5 307.166 142.5 407.499s217.167 150.5 366.5 150.5c93.333 0 180.333 -33.667 261 -101l51 81h115v-1491h-190zM821 849.001
c-54.667 54.667 -123 82 -205 82c-107.333 0 -191 -36.333 -251 -109s-90 -169 -90 -289c0 -124 30 -220.5 90 -289.5s141 -103.5 243 -103.5c91.333 0 162.333 23.333 213 70v639z" />
    <glyph glyph-name="r" unicode="r" horiz-adv-x="796" 
d="M717 888c-41.333 28.667 -83.001 43 -125.001 43c-67.333 0 -126.166 -31 -176.499 -93s-75.5 -136.667 -75.5 -224v-614h-190v1071h190v-171c69.333 127.333 172.333 191 309 191c34 0 83 -6 147 -18z" />
    <glyph glyph-name="s" unicode="s" horiz-adv-x="829" 
d="M65 64l66.9971 179.999c106 -69.333 191.333 -104 256 -104c117.333 0 176 49.333 176 148c0 70.667 -56.667 131.334 -170 182.001c-87.333 40 -146.166 70.333 -176.499 91s-56.666 44.167 -78.999 70.5s-39 54.333 -50 84s-16.5 61.5 -16.5 95.5
c0 88 32 156.667 96 206s147.667 74 251 74c78 0 176.333 -24.667 295 -74l-54 -176c-75.333 60 -151 90 -227 90c-45.333 0 -83.5 -10.667 -114.5 -32s-46.5 -48.333 -46.5 -81c0 -68.667 39 -120.667 117 -156l136 -62c83.333 -38 144 -81.333 182 -130
s57 -109.667 57 -183c0 -96 -33.667 -171.167 -101 -225.5s-160.666 -81.5 -279.999 -81.5c-112.667 0 -218.667 28 -318 84z" />
    <glyph glyph-name="t" unicode="t" horiz-adv-x="812" 
d="M203 921h-123.999v150h124v224l190 73v-297h294v-150h-294v-532c0 -90 15.167 -154 45.5 -192s79.166 -57 146.499 -57c48.667 0 99 12.333 151 37l28 -167c-78.667 -20 -165 -30 -259 -30c-84.667 0 -156.167 31.5 -214.5 94.5s-87.5 142.5 -87.5 238.5v608z" />
    <glyph glyph-name="u" unicode="u" horiz-adv-x="1119" 
d="M315 1071l-0.00292969 -683c0 -165.333 71.667 -248 215 -248c62.667 0 120 18 172 54s86.333 77.667 103 125v752h190v-1071h-190v148c-21.333 -42 -64.166 -80.5 -128.499 -115.5s-127.166 -52.5 -188.499 -52.5c-117.333 0 -207.166 33.667 -269.499 101
s-93.5 163 -93.5 287v703h190z" />
    <glyph glyph-name="v" unicode="v" horiz-adv-x="1003" 
d="M521 -20h-50l-459 1094h208l283 -750l289 750h199z" />
    <glyph glyph-name="w" unicode="w" horiz-adv-x="1524" 
d="M1125 -20h-50l-314 729l-313 -729h-50l-383 1094h203l229 -703l285 703h50l294 -703l246 703h187z" />
    <glyph glyph-name="x" unicode="x" horiz-adv-x="1026" 
d="M787 0l-292 390l-261 -390h-222l389 548l-357 523h214l240 -368l269 368h210l-389 -523l426 -548h-227z" />
    <glyph glyph-name="y" unicode="y" horiz-adv-x="1010" 
d="M544 -182c-24.667 -68 -76.5 -124.667 -155.5 -170s-167.167 -68 -264.5 -68v170c79.333 0 147.333 18.5 204 55.5s85 82.167 85 135.5c0 58.667 -10.333 116.5 -31 173.5l-80 211.5l-290 745h194l315 -828l283 828h194z" />
    <glyph glyph-name="z" unicode="z" horiz-adv-x="972" 
d="M338 170h594v-170h-892v50l609 851h-599v170h876v-54z" />
    <glyph glyph-name="braceleft" unicode="{" horiz-adv-x="752" 
d="M568 -420c-114 0 -208.333 27.332 -283 81.999s-112 126.667 -112 216c0 46.667 12.333 118 37 214s37 169 37 219c0 132 -69.667 202.667 -209 212v84c66 5.33301 117.333 28.5 154 69.5s55 94.167 55 159.5c0 45.333 -12.333 109.833 -37 193.5
s-37 145.834 -37 186.501c0 85.333 37.167 154.333 111.5 207s165.833 79 274.5 79h148v-133h-175c-109.333 0 -164 -61.333 -164 -184c0 -43.333 10.5 -99 31.5 -167s31.5 -122.333 31.5 -163c0 -105.333 -75 -201.333 -225 -288c70 -28.667 125 -66 165 -112
s60 -92 60 -138c0 -43.333 -10.5 -103.333 -31.5 -180s-31.5 -139.667 -31.5 -189c0 -152 87.667 -228 263 -228h76v-140h-139z" />
    <glyph glyph-name="bar" unicode="|" 
d="M462 -276v1681h146v-1681h-146z" />
    <glyph glyph-name="braceright" unicode="}" horiz-adv-x="752" 
d="M38 -420v140.001h76c175.333 0 263 76 263 228c0 49.333 -10.5 112.333 -31.5 189s-31.5 136.667 -31.5 180c0 46 20 92 60 138s95 83.333 165 112c-150 86.667 -225 182.667 -225 288c0 40.667 10.5 95 31.5 163s31.5 123.667 31.5 167c0 122.667 -54.667 184 -164 184
h-175v133h148c108.667 0 200.167 -26.333 274.5 -79s111.5 -121.667 111.5 -207c0 -40.667 -12.333 -102.834 -37 -186.501s-37 -148.167 -37 -193.5c0 -65.333 18.333 -118.5 55 -159.5s88 -64.167 154 -69.5v-84c-139.333 -9.33301 -209 -80 -209 -212
c0 -49.333 12.333 -121.5 37 -216.5s37 -167.167 37 -216.5c0 -89.333 -37.333 -161.333 -112 -216s-169 -82 -283 -82h-139z" />
    <glyph glyph-name="asciitilde" unicode="~" 
d="M904 716c-35.333 -138 -99.3311 -207 -191.998 -207c-52.667 0 -120.334 12.833 -203.001 38.5s-133.334 38.5 -152.001 38.5c-47.333 0 -83.333 -25.667 -108 -77h-91c9.33301 56 30.833 104.5 64.5 145.5s73.5 61.5 119.5 61.5c58 0 125.5 -12.833 202.5 -38.5
s131.5 -38.5 163.5 -38.5c54 0 90 25.667 108 77h88z" />
    <glyph glyph-name="nonbreakingspace" unicode="&#xa0;" horiz-adv-x="617" 
 />
    <glyph glyph-name="exclamdown" unicode="&#xa1;" horiz-adv-x="752" 
d="M384 790c-41.333 0 -76.666 14.667 -105.999 44s-44 64.666 -44 105.999s14.667 76.833 44 106.5s64.666 44.5 105.999 44.5s76.666 -14.833 105.999 -44.5s44 -65.167 44 -106.5s-14.667 -76.666 -44 -105.999s-64.666 -44 -105.999 -44zM491 -11v-409.001h-226v410
c0 130.667 25.667 363.667 77 699h71c52 -341.333 78 -574.666 78 -699.999z" />
    <glyph glyph-name="cent" unicode="&#xa2;" 
d="M694 1217l101.998 0.000976562l-71 -248c72.667 -17.333 129.334 -42.333 170.001 -75l-78 -113c-25.333 25.333 -68.666 44 -129.999 56l-169 -590c35.333 -13.333 74 -20 116 -20c68 0 136.667 26.333 206 79l60 -136c-81.333 -52.667 -182.333 -79 -303 -79
c-41.333 0 -81 5 -119 15l-74 -258h-115l88 300c-122.667 73.333 -184 199.666 -184 378.999c0 134.667 38.333 243.167 115 325.5s182 124.833 316 127.5zM424.998 309.001l158 532c-67.333 -10.667 -122.5 -45 -165.5 -103s-64.5 -128.333 -64.5 -211
c0 -93.333 24 -166 72 -218z" />
    <glyph glyph-name="sterling" unicode="&#xa3;" 
d="M140 856h81.999v148c0 155.333 37.333 275.333 112 360s173 127 295 127c136.667 0 234.334 -40.333 293.001 -121l-94 -133c-42.667 57.333 -116.667 86 -222 86c-122.667 0 -184 -103.667 -184 -311v-156h199v-149h-199v-527h223c101.333 0 179.333 37.667 234 113
l142 -111c-68 -121.333 -216.333 -182 -445 -182h-444v139c60 20 90 63 90 129v439h-82v149z" />
    <glyph glyph-name="currency" unicode="&#xa4;" 
d="M932 246l-143 144c-80.667 -56 -165 -84 -253 -84c-87.333 0 -171.666 28 -252.999 84l-143 -144l-84 88l143 140c-54.667 84.667 -82 168.667 -82 252c0 82.667 27.333 166.334 82 251.001l-143 140l84 88l143 -143c81.333 55.333 165.666 83 252.999 83
c88 0 172.333 -27.667 253 -83l143 143l85 -88l-143 -140c54.667 -84.667 82 -168.334 82 -251.001c0 -83.333 -27.333 -167.333 -82 -252l143 -140zM236 726c0 -83.333 29 -154.168 87 -212.501s128.667 -87.5 212 -87.5c82.667 0 153.167 29.333 211.5 88
s87.5 129.334 87.5 212.001c0 83.333 -29 154 -87 212s-128.667 87 -212 87s-154 -29 -212 -87s-87 -128.667 -87 -212z" />
    <glyph glyph-name="yen" unicode="&#xa5;" horiz-adv-x="1168" 
d="M932 475h-254v-475h-200v475h-243v131h243v50l-439 809h206l332 -640l368 640h197l-464 -809v-50h254v-131z" />
    <glyph glyph-name="brokenbar" unicode="&#xa6;" 
d="M472 694v723h146v-723h-146zM472 -276v723h146v-723h-146z" />
    <glyph glyph-name="section" unicode="&#xa7;" horiz-adv-x="929" 
d="M204 937c-79.333 45.333 -118.998 126.333 -118.998 243c0 91.333 39.333 165.833 118 223.5s170 86.5 274 86.5c42.667 0 93.5 -9.83301 152.5 -29.5s104.5 -42.834 136.5 -69.501l-62 -184c-72 68.667 -146 103 -222 103c-124.667 0 -187 -42.333 -187 -127
c0 -29.333 10.167 -57 30.5 -83s82.666 -52 186.999 -78s179.666 -62.5 225.999 -109.5s69.5 -109.5 69.5 -187.5c0 -65.333 -27 -126 -81 -182c82 -54.667 123 -128.334 123 -221.001c0 -111.333 -36 -196.666 -108 -255.999s-169.333 -89 -292 -89
c-148 0 -264.333 30.667 -349 92l68 186c72.667 -66.667 162.667 -100 270 -100c134 0 201 49 201 147c0 90 -76.333 150.667 -229 182c-90.667 18.667 -164 53 -220 103s-84 101 -84 153c0 90.667 32.333 156.334 97 197.001zM355.002 881
c-42.667 -28 -64.002 -59 -64.002 -93c0 -20.667 9.83301 -43.5 29.5 -68.5s47.834 -44.167 84.501 -57.5s100.334 -30 191.001 -50c12 24 18 55.667 18 95c0 30 -8 55.833 -24 77.5s-38.5 39 -67.5 52s-52.167 20.5 -69.5 22.5s-50 9.33301 -98 22z" />
    <glyph glyph-name="dieresis" unicode="&#xa8;" 
d="M302 1513c31.333 0 57.833 -10.833 79.5 -32.5s32.5 -48.167 32.5 -79.5s-10.833 -58 -32.5 -80s-48.167 -33 -79.5 -33s-58 11 -80 33s-33 48.667 -33 80s11 57.833 33 79.5s48.667 32.5 80 32.5zM774 1513c31.333 0 58 -10.833 80 -32.5s33 -48.167 33 -79.5
s-11 -58 -33 -80s-48.667 -33 -80 -33s-57.833 11 -79.5 33s-32.5 48.667 -32.5 80s10.833 57.833 32.5 79.5s48.167 32.5 79.5 32.5z" />
    <glyph glyph-name="copyright" unicode="&#xa9;" horiz-adv-x="1460" 
d="M105 661c0 186 66 344.833 198 476.5s291 197.5 477 197.5s344.833 -65.833 476.5 -197.5s197.5 -290.5 197.5 -476.5s-65.833 -345 -197.5 -477s-290.5 -198 -476.5 -198s-345 66 -477 198s-198 291 -198 477zM1344 661c0 156 -55 289 -165 399s-243 165 -399 165
s-289.167 -55 -399.5 -165s-165.5 -243 -165.5 -399s55.167 -289.167 165.5 -399.5s243.5 -165.5 399.5 -165.5s289 55.167 399 165.5s165 243.5 165 399.5zM1038 335c-66.667 -66 -151.332 -98.999 -253.999 -98.999c-108 0 -193.333 38.833 -256 116.5
s-94 181.167 -94 310.5c0 124.667 33.333 227.834 100 309.501s152.667 122.5 258 122.5c91.333 0 162 -14.667 212 -44l-38 -97c-36 26 -93.333 39 -172 39c-73.333 0 -131.833 -31.333 -175.5 -94s-65.5 -143.334 -65.5 -242.001c0 -94.667 22.667 -171.334 68 -230.001
s103.666 -88 174.999 -88c78 0 137.667 27.333 179 82z" />
    <glyph glyph-name="ordfeminine" unicode="&#xaa;" horiz-adv-x="752" 
d="M513 902c-50 -52 -121.999 -78 -215.999 -78c-59.333 0 -109.166 16.833 -149.499 50.5s-60.5 76.167 -60.5 127.5c0 76.667 31.167 137.334 93.5 182.001s143.166 67 242.499 67h39l35 -1c-2 84.667 -48 127 -138 127c-72.667 0 -131 -20.667 -175 -62l-58 108
c60.667 45.333 133.667 68 219 68c192 0 288 -89 288 -267v-225c0 -52.667 17.667 -88.334 53 -107.001v-67c-92.667 0 -150.334 25.667 -173.001 77zM498.001 1157l-72 -0.000976562c-61.333 0 -110.833 -13.333 -148.5 -40s-56.5 -60 -56.5 -100
c0 -25.333 11.833 -45.666 35.5 -60.999s52.834 -23 87.501 -23c61.333 0 112.666 23 153.999 69v155z" />
    <glyph glyph-name="guillemotleft" unicode="&#xab;" 
d="M129 535v64l355 244v-125l-212 -157l212 -138v-125zM528 535v64l355 244v-125l-212 -157l212 -138v-125z" />
    <glyph glyph-name="logicalnot" unicode="&#xac;" 
d="M960 886v-486h-141v345h-697v141h838z" />
    <glyph glyph-name="sfthyphen" unicode="&#xad;" horiz-adv-x="752" 
d="M159 506v175h428v-175h-428z" />
    <glyph glyph-name="registered" unicode="&#xae;" horiz-adv-x="1460" 
d="M105 661c0 186 66 344.833 198 476.5s291 197.5 477 197.5s344.833 -65.833 476.5 -197.5s197.5 -290.5 197.5 -476.5s-65.833 -345 -197.5 -477s-290.5 -198 -476.5 -198s-345 66 -477 198s-198 291 -198 477zM1344 661c0 156 -55 289 -165 399s-243 165 -399 165
s-289.167 -55 -399.5 -165s-165.5 -243 -165.5 -399s55.167 -289.167 165.5 -399.5s243.5 -165.5 399.5 -165.5s289 55.167 399 165.5s165 243.5 165 399.5zM990 254l-211 357h-120v-357h-119v831h213c200 0 300 -76.667 300 -230c0 -106.667 -53.667 -182 -161 -226
l227 -375h-129zM659 983v-276c10 -1.33301 36 -2 78 -2c77.333 0 129.333 9.83301 156 29.5s40 57.167 40 112.5c0 91.333 -60 137 -180 137h-47z" />
    <glyph glyph-name="overscore" unicode="&#xaf;" 
d="M-8 1546v129h1085v-129h-1085z" />
    <glyph glyph-name="degree" unicode="&#xb0;" 
d="M508 1072c-58.667 0 -108.667 20.5 -150 61.5s-62 90.5 -62 148.5s20.667 107.333 62 148s91.333 61 150 61s108.5 -20.333 149.5 -61s61.5 -90 61.5 -148s-20.667 -107.5 -62 -148.5s-91 -61.5 -149 -61.5zM508 1421c-38 0 -70.667 -13.667 -98 -41s-41 -60 -41 -98
s13.667 -70.667 41 -98s60 -41 98 -41s70.667 13.667 98 41s41 60 41 98s-13.667 70.667 -41 98s-60 41 -98 41z" />
    <glyph glyph-name="plusminus" unicode="&#xb1;" 
d="M611 706h349v-141h-349v-345h-141v345h-348v141h348v343h141v-343zM960 121v-141h-838v141h838z" />
    <glyph glyph-name="twosuperior" unicode="&#xb2;" horiz-adv-x="924" 
d="M184 595l-0.000976562 24.001l266 414c57.333 89.333 86 163.666 86 222.999c0 81.333 -42.667 122 -128 122c-71.333 0 -127.666 -41.333 -168.999 -124l-77 63c17.333 49.333 48.333 90.5 93 123.5s93.667 49.5 147 49.5c176 0 264 -74.667 264 -224
c0 -80 -31 -168.667 -93 -266l-183 -287h334v-118h-540z" />
    <glyph glyph-name="threesuperior" unicode="&#xb3;" horiz-adv-x="929" 
d="M185 657l59.001 102c32.667 -36 82 -54 148 -54c108.667 0 163 47.333 163 142c0 48.667 -15.333 88 -46 118s-73.334 45 -128.001 45h-10v102h6c98.667 0 148 46.333 148 139c0 79.333 -46.333 119 -139 119c-56.667 0 -98 -14.667 -124 -44l-54 91
c37.333 48.667 99.666 73 186.999 73c77.333 0 140 -20.833 188 -62.5s72 -94.167 72 -157.5c0 -48.667 -13.167 -91.5 -39.5 -128.5s-58.166 -62.5 -95.499 -76.5c110 -36 165 -111.667 165 -227c0 -168.667 -98.333 -253 -295 -253c-86 0 -154.333 24 -205 72z" />
    <glyph glyph-name="acute" unicode="&#xb4;" 
d="M744 1618l-226 -333h-140l169 333h197z" />
    <glyph glyph-name="mu1" unicode="&#xb5;" horiz-adv-x="1119" 
d="M325 18v-438h-190v1491h190v-623c0 -201.333 78.333 -302 235 -302c56 0 105.333 14.5 148 43.5s71.667 64.167 87 105.5v776h190v-1071h-190v148c-22.667 -50 -60 -90.5 -112 -121.5s-110.333 -46.5 -175 -46.5c-72 0 -133 12.667 -183 38z" />
    <glyph glyph-name="paragraph" unicode="&#xb6;" 
d="M778 -250v1616h-158v-1616h-154v893c-232 0 -348 144.667 -348 434c0 117.333 27 215.333 81 294s129.333 118 226 118h507v-1739h-154z" />
    <glyph glyph-name="middot" unicode="&#xb7;" horiz-adv-x="752" 
d="M355 801c41.333 0 76.666 -14.667 105.999 -44s44 -64.666 44 -105.999s-14.667 -76.833 -44 -106.5s-64.666 -44.5 -105.999 -44.5s-76.666 14.833 -105.999 44.5s-44 65.167 -44 106.5s14.667 76.666 44 105.999s64.666 44 105.999 44z" />
    <glyph glyph-name="cedilla" unicode="&#xb8;" 
d="M355 -455l-24 99.001c52 0 95.333 9 130 27s52 43 52 75c0 49.333 -30 74 -90 74v119c66 0 117.333 -18.667 154 -56s55 -83 55 -137c0 -62.667 -24.333 -111.834 -73 -147.501s-116.667 -53.5 -204 -53.5z" />
    <glyph glyph-name="onesuperior" unicode="&#xb9;" horiz-adv-x="924" 
d="M439 595v674l-188 -112v113c131.333 66 225.333 135.333 282 208h36v-883h-130z" />
    <glyph glyph-name="ordmasculine" unicode="&#xba;" horiz-adv-x="752" 
d="M66 1159c0 98.667 28.668 178.667 86.001 240s133 92 227 92c99.333 0 176.166 -29.667 230.499 -89s81.5 -140.333 81.5 -243c0 -102 -27.5 -183.333 -82.5 -244s-131.5 -91 -229.5 -91s-174.667 30.167 -230 90.5s-83 141.833 -83 244.5zM207.001 1159
c0 -147.333 57.333 -221 172 -221c114 0 171 73.667 171 221c0 145.333 -57 218 -171 218c-114.667 0 -172 -72.667 -172 -218z" />
    <glyph glyph-name="guillemotright" unicode="&#xbb;" 
d="M524 535l-355 -237v125l212 138l-212 157v125l355 -244v-64zM923 535l-355 -237v125l212 138l-212 157v125l355 -244v-64z" />
    <glyph glyph-name="onequarter" unicode="&#xbc;" horiz-adv-x="1668" 
d="M349 -35h-128l974 1526h126zM259 595v664l-178 -102v113c131.333 66 225.333 135.333 282 208h36v-883h-140zM1400 210v-210h-130v210h-404v68l492 605h42v-571h89v-102h-89zM1270 623l-252 -311h252v311z" />
    <glyph glyph-name="onehalf" unicode="&#xbd;" horiz-adv-x="1668" 
d="M336 -35h-128l974 1526h126zM289 595v674l-188 -112v113c131.333 66 225.333 135.333 282 208h36v-883h-130zM1024 0l-0.000976562 24.001l266 414c57.333 89.333 86 163.666 86 222.999c0 81.333 -42.667 122 -128 122c-71.333 0 -127.666 -41.333 -168.999 -124l-77 63
c17.333 49.333 48.333 90.5 93 123.5s93.667 49.5 147 49.5c176 0 264 -74.667 264 -224c0 -80 -31 -168.667 -93 -266l-183 -287h334v-118h-540z" />
    <glyph glyph-name="threequarters" unicode="&#xbe;" horiz-adv-x="1668" 
d="M429 -35h-128l974 1526h126zM125 657l59.001 102c32.667 -36 82 -54 148 -54c108.667 0 163 47.333 163 142c0 48.667 -15.333 88 -46 118s-73.334 45 -128.001 45h-10v102h6c98.667 0 148 46.333 148 139c0 79.333 -46.333 119 -139 119c-56.667 0 -98 -14.667 -124 -44
l-54 91c37.333 48.667 99.666 73 186.999 73c77.333 0 140 -20.833 188 -62.5s72 -94.167 72 -157.5c0 -48.667 -13.167 -91.5 -39.5 -128.5s-58.166 -62.5 -95.499 -76.5c110 -36 165 -111.667 165 -227c0 -168.667 -98.333 -253 -295 -253c-86 0 -154.333 24 -205 72z
M1430 210v-210h-130v210h-404v68l492 605h42v-571h89v-102h-89zM1300 623l-252 -311h252v311z" />
    <glyph glyph-name="questiondown" unicode="&#xbf;" horiz-adv-x="752" 
d="M406 790c-41.333 0 -76.666 14.667 -105.999 44s-44 64.666 -44 105.999s14.667 76.833 44 106.5s64.666 44.5 105.999 44.5s76.666 -14.833 105.999 -44.5s44 -65.167 44 -106.5s-14.667 -76.666 -44 -105.999s-64.666 -44 -105.999 -44zM364 642l131.998 -0.000976562
c22.667 -63.333 34 -109 34 -137c0 -48 -8.83301 -97 -26.5 -147s-57.667 -109.833 -120 -179.5s-104.166 -123.167 -125.499 -160.5s-32 -73.666 -32 -108.999c0 -117.333 71 -176 213 -176c68 0 127.333 24.333 178 73l73 -143c-67.333 -55.333 -167.666 -83 -300.999 -83
c-100 0 -183.167 28.333 -249.5 85s-99.5 132.334 -99.5 227.001c0 48 8.5 94.167 25.5 138.5s43.167 85.166 78.5 122.499l146 156c58.667 72 88 152.667 88 242c0 14 -4.66699 44.333 -14 91z" />
    <glyph glyph-name="Agrave" unicode="&#xc0;" horiz-adv-x="1208" 
d="M982 0l-101 309h-545l-108 -309h-224l595 1485h53l552 -1485h-222zM616 1101l-227 -645h435zM578 1585l-226 333h197l169 -333h-140z" />
    <glyph glyph-name="Aacute" unicode="&#xc1;" horiz-adv-x="1208" 
d="M982 0l-101 309h-545l-108 -309h-224l595 1485h53l552 -1485h-222zM616 1101l-227 -645h435zM859 1918l-226 -333h-140l169 333h197z" />
    <glyph glyph-name="Acircumflex" unicode="&#xc2;" horiz-adv-x="1208" 
d="M982 0l-101 309h-545l-108 -309h-224l595 1485h53l552 -1485h-222zM616 1101l-227 -645h435zM778 1585l-163 189l-178 -189h-172l298 338h107l305 -338h-197z" />
    <glyph glyph-name="Atilde" unicode="&#xc3;" horiz-adv-x="1208" 
d="M982 0l-101 309h-545l-108 -309h-224l595 1485h53l552 -1485h-222zM616 1101l-227 -645h435zM932 1792c-35.333 -138 -99.332 -207 -191.999 -207c-42 0 -88.167 12.833 -138.5 38.5s-85.833 38.5 -106.5 38.5c-47.333 0 -83.333 -25.667 -108 -77h-91
c9.33301 56 30.833 104.5 64.5 145.5s73.5 61.5 119.5 61.5c54.667 0 105.167 -12.833 151.5 -38.5s81.166 -38.5 104.499 -38.5c54 0 90 25.667 108 77h88z" />
    <glyph glyph-name="Adieresis" unicode="&#xc4;" horiz-adv-x="1208" 
d="M982 0l-101 309h-545l-108 -309h-224l595 1485h53l552 -1485h-222zM616 1101l-227 -645h435zM386 1813c31.333 0 57.833 -10.833 79.5 -32.5s32.5 -48.167 32.5 -79.5s-10.833 -58 -32.5 -80s-48.167 -33 -79.5 -33s-58 11 -80 33s-33 48.667 -33 80s11 57.833 33 79.5
s48.667 32.5 80 32.5zM858 1813c31.333 0 58 -10.833 80 -32.5s33 -48.167 33 -79.5s-11 -58 -33 -80s-48.667 -33 -80 -33s-57.833 11 -79.5 33s-32.5 48.667 -32.5 80s10.833 57.833 32.5 79.5s48.167 32.5 79.5 32.5z" />
    <glyph glyph-name="Aring" unicode="&#xc5;" horiz-adv-x="1208" 
d="M683 1402l521 -1402h-222l-101 309h-549l-104 -309h-224l562 1404c-44 13.333 -80.167 38.5 -108.5 75.5s-42.5 78.833 -42.5 125.5c0 58 20.667 107.333 62 148s91.333 61 150 61s108.5 -20.333 149.5 -61s61.5 -90 61.5 -148c0 -48 -14.5 -90.833 -43.5 -128.5
s-66.167 -62.5 -111.5 -74.5zM627 1505c28 0 51.833 9.83301 71.5 29.5s29.5 43.167 29.5 70.5s-9.83301 50.666 -29.5 69.999s-43.5 29 -71.5 29s-52 -9.66699 -72 -29s-30 -42.666 -30 -69.999s10 -50.833 30 -70.5s44 -29.5 72 -29.5zM616 1101l-227 -645h435z" />
    <glyph glyph-name="AE" unicode="&#xc6;" horiz-adv-x="1775" 
d="M828 307h-448l-139 -307h-224l705 1465h981v-180h-675v-407h484v-170h-484v-528h664v-180h-864v307zM828 1285l-384 -829h384v829z" />
    <glyph glyph-name="Ccedilla" unicode="&#xc7;" horiz-adv-x="1225" 
d="M1085 1411l-66.999 -170.999c-64 46.667 -164.667 70 -302 70c-128.667 0 -231.834 -55.333 -309.501 -166s-116.5 -253.334 -116.5 -428.001c0 -166.667 39.833 -301.834 119.5 -405.501s182.5 -155.5 308.5 -155.5c137.333 0 243 48.667 317 146l110 -153
c-116 -115.333 -265.333 -173 -448 -173c-191.333 0 -342 69 -452 207s-165 320 -165 546c0 218.667 58.667 400.334 176 545.001s269 217 455 217c159.333 0 284 -26.333 374 -79zM467.001 -454.999l-24 99.001c52 0 95.333 9 130 27s52 43 52 75c0 49.333 -30 74 -90 74
v119c66 0 117.333 -18.667 154 -56s55 -83 55 -137c0 -62.667 -24.333 -111.834 -73 -147.501s-116.667 -53.5 -204 -53.5z" />
    <glyph glyph-name="Egrave" unicode="&#xc8;" horiz-adv-x="1097" 
d="M350 1285v-407h484v-170h-484v-528h664v-180h-864v1465h875v-180h-675zM592 1585l-226 333h197l169 -333h-140z" />
    <glyph glyph-name="Eacute" unicode="&#xc9;" horiz-adv-x="1097" 
d="M350 1285v-407h484v-170h-484v-528h664v-180h-864v1465h875v-180h-675zM802 1918l-226 -333h-140l169 333h197z" />
    <glyph glyph-name="Ecircumflex" unicode="&#xca;" horiz-adv-x="1097" 
d="M350 1285v-407h484v-170h-484v-528h664v-180h-864v1465h875v-180h-675zM718 1585l-163 189l-178 -189h-172l298 338h107l305 -338h-197z" />
    <glyph glyph-name="Edieresis" unicode="&#xcb;" horiz-adv-x="1097" 
d="M350 1285v-407h484v-170h-484v-528h664v-180h-864v1465h875v-180h-675zM343 1813c31.333 0 57.833 -10.833 79.5 -32.5s32.5 -48.167 32.5 -79.5s-10.833 -58 -32.5 -80s-48.167 -33 -79.5 -33s-58 11 -80 33s-33 48.667 -33 80s11 57.833 33 79.5s48.667 32.5 80 32.5z
M815 1813c31.333 0 58 -10.833 80 -32.5s33 -48.167 33 -79.5s-11 -58 -33 -80s-48.667 -33 -80 -33s-57.833 11 -79.5 33s-32.5 48.667 -32.5 80s10.833 57.833 32.5 79.5s48.167 32.5 79.5 32.5z" />
    <glyph glyph-name="Igrave" unicode="&#xcc;" horiz-adv-x="570" 
d="M185 0v1465h200v-1465h-200zM329 1585l-226 333h197l169 -333h-140z" />
    <glyph glyph-name="Iacute" unicode="&#xcd;" horiz-adv-x="570" 
d="M185 0v1465h200v-1465h-200zM577 1918l-226 -333h-140l169 333h197z" />
    <glyph glyph-name="Icircumflex" unicode="&#xce;" horiz-adv-x="570" 
d="M185 0v1465h200v-1465h-200zM433 1585l-163 189l-178 -189h-172l298 338h107l305 -338h-197z" />
    <glyph glyph-name="Idieresis" unicode="&#xcf;" horiz-adv-x="570" 
d="M185 0v1465h200v-1465h-200zM82 1813c31.333 0 57.833 -10.833 79.5 -32.5s32.5 -48.167 32.5 -79.5s-10.833 -58 -32.5 -80s-48.167 -33 -79.5 -33s-58 11 -80 33s-33 48.667 -33 80s11 57.833 33 79.5s48.667 32.5 80 32.5zM554 1813c31.333 0 58 -10.833 80 -32.5
s33 -48.167 33 -79.5s-11 -58 -33 -80s-48.667 -33 -80 -33s-57.833 11 -79.5 33s-32.5 48.667 -32.5 80s10.833 57.833 32.5 79.5s48.167 32.5 79.5 32.5z" />
    <glyph glyph-name="Eth" unicode="&#xd0;" horiz-adv-x="1256" 
d="M15 691v160h135v614c188 6.66699 308.333 10 361 10c204.667 0 366.667 -62.167 486 -186.5s179 -289.833 179 -496.5c0 -528 -243.667 -792 -731 -792h-295v691h-135zM350 851h149.001v-160h-149v-501c44.667 -6.66699 100 -10 166 -10c140 0 250 52.5 330 157.5
s120 250.833 120 437.5c0 346.667 -155.667 520 -467 520c-18.667 0 -68.334 -3.33301 -149.001 -10v-434z" />
    <glyph glyph-name="Ntilde" unicode="&#xd1;" horiz-adv-x="1307" 
d="M1097 -20l-757 1071v-1051h-190v1465h80l737 -1013v1013h190v-1485h-60zM930 1792c-35.333 -138 -99.332 -207 -191.999 -207c-42 0 -88.167 12.833 -138.5 38.5s-85.833 38.5 -106.5 38.5c-47.333 0 -83.333 -25.667 -108 -77h-91c9.33301 56 30.833 104.5 64.5 145.5
s73.5 61.5 119.5 61.5c54.667 0 105.167 -12.833 151.5 -38.5s81.166 -38.5 104.499 -38.5c54 0 90 25.667 108 77h88z" />
    <glyph glyph-name="Ograve" unicode="&#xd2;" horiz-adv-x="1380" 
d="M80 745c0 212 53.1689 389.333 159.502 532s249.833 214 430.5 214c203.333 0 359.166 -65.667 467.499 -197s162.5 -314.333 162.5 -549c0 -240.667 -54.333 -429.167 -163 -565.5s-264.334 -204.5 -467.001 -204.5c-184.667 0 -329.167 72 -433.5 216
s-156.5 328.667 -156.5 554zM290.002 745c0 -168 33.166 -308.333 99.499 -421s159.833 -169 280.5 -169c136.667 0 240.834 51.667 312.501 155s107.5 248.333 107.5 435c0 377.333 -140 566 -420 566c-124 0 -218.333 -50.667 -283 -152s-97 -239.333 -97 -414z
M718.001 1585l-226 333h197l169 -333h-140z" />
    <glyph glyph-name="Oacute" unicode="&#xd3;" horiz-adv-x="1380" 
d="M80 745c0 212 53.1689 389.333 159.502 532s249.833 214 430.5 214c203.333 0 359.166 -65.667 467.499 -197s162.5 -314.333 162.5 -549c0 -240.667 -54.333 -429.167 -163 -565.5s-264.334 -204.5 -467.001 -204.5c-184.667 0 -329.167 72 -433.5 216
s-156.5 328.667 -156.5 554zM290.002 745c0 -168 33.166 -308.333 99.499 -421s159.833 -169 280.5 -169c136.667 0 240.834 51.667 312.501 155s107.5 248.333 107.5 435c0 377.333 -140 566 -420 566c-124 0 -218.333 -50.667 -283 -152s-97 -239.333 -97 -414z
M889.001 1918l-226 -333h-140l169 333h197z" />
    <glyph glyph-name="Ocircumflex" unicode="&#xd4;" horiz-adv-x="1380" 
d="M80 745c0 212 53.1689 389.333 159.502 532s249.833 214 430.5 214c203.333 0 359.166 -65.667 467.499 -197s162.5 -314.333 162.5 -549c0 -240.667 -54.333 -429.167 -163 -565.5s-264.334 -204.5 -467.001 -204.5c-184.667 0 -329.167 72 -433.5 216
s-156.5 328.667 -156.5 554zM290.002 745c0 -168 33.166 -308.333 99.499 -421s159.833 -169 280.5 -169c136.667 0 240.834 51.667 312.501 155s107.5 248.333 107.5 435c0 377.333 -140 566 -420 566c-124 0 -218.333 -50.667 -283 -152s-97 -239.333 -97 -414z
M828.001 1585l-163 189l-178 -189h-172l298 338h107l305 -338h-197z" />
    <glyph glyph-name="Otilde" unicode="&#xd5;" horiz-adv-x="1380" 
d="M80 745c0 212 53.1689 389.333 159.502 532s249.833 214 430.5 214c203.333 0 359.166 -65.667 467.499 -197s162.5 -314.333 162.5 -549c0 -240.667 -54.333 -429.167 -163 -565.5s-264.334 -204.5 -467.001 -204.5c-184.667 0 -329.167 72 -433.5 216
s-156.5 328.667 -156.5 554zM290.002 745c0 -168 33.166 -308.333 99.499 -421s159.833 -169 280.5 -169c136.667 0 240.834 51.667 312.501 155s107.5 248.333 107.5 435c0 377.333 -140 566 -420 566c-124 0 -218.333 -50.667 -283 -152s-97 -239.333 -97 -414zM1000 1792
c-35.333 -138 -99.332 -207 -191.999 -207c-42 0 -88.167 12.833 -138.5 38.5s-85.833 38.5 -106.5 38.5c-47.333 0 -83.333 -25.667 -108 -77h-91c9.33301 56 30.833 104.5 64.5 145.5s73.5 61.5 119.5 61.5c54.667 0 105.167 -12.833 151.5 -38.5
s81.166 -38.5 104.499 -38.5c54 0 90 25.667 108 77h88z" />
    <glyph glyph-name="Odieresis" unicode="&#xd6;" horiz-adv-x="1380" 
d="M80 745c0 212 53.1689 389.333 159.502 532s249.833 214 430.5 214c203.333 0 359.166 -65.667 467.499 -197s162.5 -314.333 162.5 -549c0 -240.667 -54.333 -429.167 -163 -565.5s-264.334 -204.5 -467.001 -204.5c-184.667 0 -329.167 72 -433.5 216
s-156.5 328.667 -156.5 554zM290.002 745c0 -168 33.166 -308.333 99.499 -421s159.833 -169 280.5 -169c136.667 0 240.834 51.667 312.501 155s107.5 248.333 107.5 435c0 377.333 -140 566 -420 566c-124 0 -218.333 -50.667 -283 -152s-97 -239.333 -97 -414z
M450.001 1813c31.333 0 57.833 -10.833 79.5 -32.5s32.5 -48.167 32.5 -79.5s-10.833 -58 -32.5 -80s-48.167 -33 -79.5 -33s-58 11 -80 33s-33 48.667 -33 80s11 57.833 33 79.5s48.667 32.5 80 32.5zM922.001 1813c31.333 0 58 -10.833 80 -32.5s33 -48.167 33 -79.5
s-11 -58 -33 -80s-48.667 -33 -80 -33s-57.833 11 -79.5 33s-32.5 48.667 -32.5 80s10.833 57.833 32.5 79.5s48.167 32.5 79.5 32.5z" />
    <glyph glyph-name="multiply" unicode="&#xd7;" 
d="M544 728l317 317l100 -99l-317 -317l314 -315l-100 -100l-314 315l-317 -317l-100 99l317 317l-321 321l100 100z" />
    <glyph glyph-name="Oslash" unicode="&#xd8;" horiz-adv-x="1345" 
d="M350 66l-67 -91.001h-216l160 211c-106.667 142.667 -160 329 -160 559c0 212 53.167 389.333 159.5 532s249.833 214 430.5 214c142.667 0 263 -33.333 361 -100l67 100h202l-144 -220c96 -129.333 144 -304.666 144 -525.999c0 -240.667 -54.333 -429.167 -163 -565.5
s-264.334 -204.5 -467.001 -204.5c-117.333 0 -219.666 30.333 -306.999 91zM913 1229c-66 54.667 -151.333 82 -256 82c-124 0 -218.333 -50.667 -283 -152s-97 -239.333 -97 -414c0 -144.667 25.667 -270.667 77 -378zM1019 1083l-561.999 -856.001
c56 -48 122.667 -72 200 -72c137.333 0 241.666 52 312.999 156s107 248.667 107 434c0 136.667 -19.333 249.334 -58 338.001z" />
    <glyph glyph-name="Ugrave" unicode="&#xd9;" horiz-adv-x="1328" 
d="M150 1465h199.998v-1003c0 -89.333 28.333 -162.833 85 -220.5s131.667 -86.5 225 -86.5c98.667 0 176.334 28 233.001 84s85 132 85 228v998h200v-1019c0 -148 -46.167 -263.5 -138.5 -346.5s-218.166 -124.5 -377.499 -124.5c-164 0 -290.333 40.667 -379 122
s-133 198 -133 350v1018zM658.998 1585l-226 333h197l169 -333h-140z" />
    <glyph glyph-name="Uacute" unicode="&#xda;" horiz-adv-x="1328" 
d="M150 1465h199.998v-1003c0 -89.333 28.333 -162.833 85 -220.5s131.667 -86.5 225 -86.5c98.667 0 176.334 28 233.001 84s85 132 85 228v998h200v-1019c0 -148 -46.167 -263.5 -138.5 -346.5s-218.166 -124.5 -377.499 -124.5c-164 0 -290.333 40.667 -379 122
s-133 198 -133 350v1018zM853.998 1918l-226 -333h-140l169 333h197z" />
    <glyph glyph-name="Ucircumflex" unicode="&#xdb;" horiz-adv-x="1328" 
d="M150 1465h199.998v-1003c0 -89.333 28.333 -162.833 85 -220.5s131.667 -86.5 225 -86.5c98.667 0 176.334 28 233.001 84s85 132 85 228v998h200v-1019c0 -148 -46.167 -263.5 -138.5 -346.5s-218.166 -124.5 -377.499 -124.5c-164 0 -290.333 40.667 -379 122
s-133 198 -133 350v1018zM791.998 1585l-163 189l-178 -189h-172l298 338h107l305 -338h-197z" />
    <glyph glyph-name="Udieresis" unicode="&#xdc;" horiz-adv-x="1328" 
d="M150 1465h199.998v-1003c0 -89.333 28.333 -162.833 85 -220.5s131.667 -86.5 225 -86.5c98.667 0 176.334 28 233.001 84s85 132 85 228v998h200v-1019c0 -148 -46.167 -263.5 -138.5 -346.5s-218.166 -124.5 -377.499 -124.5c-164 0 -290.333 40.667 -379 122
s-133 198 -133 350v1018zM401.998 1813c31.333 0 57.833 -10.833 79.5 -32.5s32.5 -48.167 32.5 -79.5s-10.833 -58 -32.5 -80s-48.167 -33 -79.5 -33s-58 11 -80 33s-33 48.667 -33 80s11 57.833 33 79.5s48.667 32.5 80 32.5zM873.998 1813c31.333 0 58 -10.833 80 -32.5
s33 -48.167 33 -79.5s-11 -58 -33 -80s-48.667 -33 -80 -33s-57.833 11 -79.5 33s-32.5 48.667 -32.5 80s10.833 57.833 32.5 79.5s48.167 32.5 79.5 32.5z" />
    <glyph glyph-name="Yacute" unicode="&#xdd;" horiz-adv-x="1168" 
d="M685 656v-656h-200v656l-472 809h206l365 -640l365 640h206zM819 1918l-226 -333h-140l169 333h197z" />
    <glyph glyph-name="Thorn" unicode="&#xde;" horiz-adv-x="1138" 
d="M499 314h-148v-314h-201v1465h201v-190h74c425.333 0 638 -149 638 -447c0 -163.333 -49.5 -289.833 -148.5 -379.5s-237.5 -134.5 -415.5 -134.5zM460 1095h-109v-601h134c248 0 372 104.333 372 313c0 100 -30.667 173 -92 219s-163 69 -305 69z" />
    <glyph glyph-name="germandbls" unicode="&#xdf;" horiz-adv-x="1119" 
d="M522 3l36 150.997l56 -9c12 -2 31.833 -0.166992 59.5 5.5s51.834 15.834 72.501 30.501s37.834 33.834 51.501 57.501s24 51.667 31 84s10.5 69.166 10.5 110.499c0 55.333 -9.83301 103.666 -29.5 144.999s-38.834 69.833 -57.501 85.5l-152 125.5
c-56 45.333 -84 94 -84 146c0 14.667 16.833 36.334 50.5 65.001s59.167 55.834 76.5 81.501s26 57.834 26 96.501c0 108 -56.333 162 -169 162c-64 0 -109.167 -25 -135.5 -75s-39.5 -133 -39.5 -249v-1016h-190v1115c0 122.667 30.667 219.167 92 289.5
s143.666 105.5 246.999 105.5c117.333 0 208.333 -25 273 -75s97 -117.667 97 -203s-31.667 -164.333 -95 -237c-22 -25.333 -33 -42 -33 -50c0 -14 4.33301 -24.667 13 -32s35 -22.333 79 -45c154 -80 231 -220.667 231 -422c0 -146 -32.333 -260.167 -97 -342.5
s-157.667 -123.5 -279 -123.5c-50.667 0 -97.667 7.66699 -141 23z" />
    <glyph glyph-name="agrave" unicode="&#xe0;" horiz-adv-x="1076" 
d="M740 123c-76 -95.333 -192.333 -143 -349 -143c-84 0 -156.833 30.5 -218.5 91.5s-92.5 136.833 -92.5 227.5c0 108.667 47.5 200.5 142.5 275.5s216.167 112.5 363.5 112.5c40 0 85.333 -8.66699 136 -26c0 173.333 -77.333 260 -232 260c-118.667 0 -210 -32 -274 -96
l-80 159c36 29.333 85.833 54.5 149.5 75.5s124.5 31.5 182.5 31.5c155.333 0 268.166 -35.333 338.499 -106s105.5 -183 105.5 -337v-384c0 -94 28 -156.667 84 -188v-95c-77.333 0 -135.166 11 -173.499 33s-65.833 58.333 -82.5 109zM722 526
c-60 13.333 -102 19.999 -126 19.999c-96 0 -174.333 -24.667 -235 -74s-91 -107.666 -91 -174.999c0 -111.333 65.667 -167 197 -167c96 0 181 45.667 255 137v259zM505 1285l-226 333h197l169 -333h-140z" />
    <glyph glyph-name="aacute" unicode="&#xe1;" horiz-adv-x="1076" 
d="M740 123c-76 -95.333 -192.333 -143 -349 -143c-84 0 -156.833 30.5 -218.5 91.5s-92.5 136.833 -92.5 227.5c0 108.667 47.5 200.5 142.5 275.5s216.167 112.5 363.5 112.5c40 0 85.333 -8.66699 136 -26c0 173.333 -77.333 260 -232 260c-118.667 0 -210 -32 -274 -96
l-80 159c36 29.333 85.833 54.5 149.5 75.5s124.5 31.5 182.5 31.5c155.333 0 268.166 -35.333 338.499 -106s105.5 -183 105.5 -337v-384c0 -94 28 -156.667 84 -188v-95c-77.333 0 -135.166 11 -173.499 33s-65.833 58.333 -82.5 109zM722 526
c-60 13.333 -102 19.999 -126 19.999c-96 0 -174.333 -24.667 -235 -74s-91 -107.666 -91 -174.999c0 -111.333 65.667 -167 197 -167c96 0 181 45.667 255 137v259zM765 1618l-226 -333h-140l169 333h197z" />
    <glyph glyph-name="acircumflex" unicode="&#xe2;" horiz-adv-x="1076" 
d="M740 123c-76 -95.333 -192.333 -143 -349 -143c-84 0 -156.833 30.5 -218.5 91.5s-92.5 136.833 -92.5 227.5c0 108.667 47.5 200.5 142.5 275.5s216.167 112.5 363.5 112.5c40 0 85.333 -8.66699 136 -26c0 173.333 -77.333 260 -232 260c-118.667 0 -210 -32 -274 -96
l-80 159c36 29.333 85.833 54.5 149.5 75.5s124.5 31.5 182.5 31.5c155.333 0 268.166 -35.333 338.499 -106s105.5 -183 105.5 -337v-384c0 -94 28 -156.667 84 -188v-95c-77.333 0 -135.166 11 -173.499 33s-65.833 58.333 -82.5 109zM722 526
c-60 13.333 -102 19.999 -126 19.999c-96 0 -174.333 -24.667 -235 -74s-91 -107.666 -91 -174.999c0 -111.333 65.667 -167 197 -167c96 0 181 45.667 255 137v259zM680 1285l-163 189l-178 -189h-172l298 338h107l305 -338h-197z" />
    <glyph glyph-name="atilde" unicode="&#xe3;" horiz-adv-x="1076" 
d="M740 123c-76 -95.333 -192.333 -143 -349 -143c-84 0 -156.833 30.5 -218.5 91.5s-92.5 136.833 -92.5 227.5c0 108.667 47.5 200.5 142.5 275.5s216.167 112.5 363.5 112.5c40 0 85.333 -8.66699 136 -26c0 173.333 -77.333 260 -232 260c-118.667 0 -210 -32 -274 -96
l-80 159c36 29.333 85.833 54.5 149.5 75.5s124.5 31.5 182.5 31.5c155.333 0 268.166 -35.333 338.499 -106s105.5 -183 105.5 -337v-384c0 -94 28 -156.667 84 -188v-95c-77.333 0 -135.166 11 -173.499 33s-65.833 58.333 -82.5 109zM722 526
c-60 13.333 -102 19.999 -126 19.999c-96 0 -174.333 -24.667 -235 -74s-91 -107.666 -91 -174.999c0 -111.333 65.667 -167 197 -167c96 0 181 45.667 255 137v259zM833 1492c-35.333 -138 -99.332 -207 -191.999 -207c-42 0 -88.167 12.833 -138.5 38.5
s-85.833 38.5 -106.5 38.5c-47.333 0 -83.333 -25.667 -108 -77h-91c9.33301 56 30.833 104.5 64.5 145.5s73.5 61.5 119.5 61.5c54.667 0 105.167 -12.833 151.5 -38.5s81.166 -38.5 104.499 -38.5c54 0 90 25.667 108 77h88z" />
    <glyph glyph-name="adieresis" unicode="&#xe4;" horiz-adv-x="1076" 
d="M740 123c-76 -95.333 -192.333 -143 -349 -143c-84 0 -156.833 30.5 -218.5 91.5s-92.5 136.833 -92.5 227.5c0 108.667 47.5 200.5 142.5 275.5s216.167 112.5 363.5 112.5c40 0 85.333 -8.66699 136 -26c0 173.333 -77.333 260 -232 260c-118.667 0 -210 -32 -274 -96
l-80 159c36 29.333 85.833 54.5 149.5 75.5s124.5 31.5 182.5 31.5c155.333 0 268.166 -35.333 338.499 -106s105.5 -183 105.5 -337v-384c0 -94 28 -156.667 84 -188v-95c-77.333 0 -135.166 11 -173.499 33s-65.833 58.333 -82.5 109zM722 526
c-60 13.333 -102 19.999 -126 19.999c-96 0 -174.333 -24.667 -235 -74s-91 -107.666 -91 -174.999c0 -111.333 65.667 -167 197 -167c96 0 181 45.667 255 137v259zM276 1513c31.333 0 57.833 -10.833 79.5 -32.5s32.5 -48.167 32.5 -79.5s-10.833 -58 -32.5 -80
s-48.167 -33 -79.5 -33s-58 11 -80 33s-33 48.667 -33 80s11 57.833 33 79.5s48.667 32.5 80 32.5zM748 1513c31.333 0 58 -10.833 80 -32.5s33 -48.167 33 -79.5s-11 -58 -33 -80s-48.667 -33 -80 -33s-57.833 11 -79.5 33s-32.5 48.667 -32.5 80s10.833 57.833 32.5 79.5
s48.167 32.5 79.5 32.5z" />
    <glyph glyph-name="aring" unicode="&#xe5;" horiz-adv-x="1076" 
d="M740 123c-76 -95.333 -192.333 -143 -349 -143c-84 0 -156.833 30.5 -218.5 91.5s-92.5 136.833 -92.5 227.5c0 108.667 47.5 200.5 142.5 275.5s216.167 112.5 363.5 112.5c40 0 85.333 -8.66699 136 -26c0 173.333 -77.333 260 -232 260c-118.667 0 -210 -32 -274 -96
l-80 159c36 29.333 85.833 54.5 149.5 75.5s124.5 31.5 182.5 31.5c155.333 0 268.166 -35.333 338.499 -106s105.5 -183 105.5 -337v-384c0 -94 28 -156.667 84 -188v-95c-77.333 0 -135.166 11 -173.499 33s-65.833 58.333 -82.5 109zM722 526
c-60 13.333 -102 19.999 -126 19.999c-96 0 -174.333 -24.667 -235 -74s-91 -107.666 -91 -174.999c0 -111.333 65.667 -167 197 -167c96 0 181 45.667 255 137v259zM514 1704c58.667 0 108.5 -20.333 149.5 -61s61.5 -90 61.5 -148s-20.667 -107.5 -62 -148.5
s-91 -61.5 -149 -61.5c-58.667 0 -108.667 20.5 -150 61.5s-62 90.5 -62 148.5s20.667 107.333 62 148s91.333 61 150 61zM514 1395c28 0 51.833 9.83301 71.5 29.5s29.5 43.167 29.5 70.5s-9.83301 50.666 -29.5 69.999s-43.5 29 -71.5 29s-52 -9.66699 -72 -29
s-30 -42.666 -30 -69.999s10 -50.833 30 -70.5s44 -29.5 72 -29.5z" />
    <glyph glyph-name="ae" unicode="&#xe6;" horiz-adv-x="1788" 
d="M1696 517l-762.001 0.000976562c0 -113.333 29.667 -204.5 89 -273.5s138.666 -103.5 237.999 -103.5c116.667 0 208 36.333 274 109l80 -152c-52 -46 -108.333 -77 -169 -93s-134.667 -24 -222 -24c-113.333 0 -212.666 31.667 -297.999 95
c3.33301 -33.333 7 -65 11 -95h-161l-35 143c-76 -95.333 -189 -143 -339 -143c-88.667 0 -164.5 29.167 -227.5 87.5s-94.5 129.5 -94.5 213.5c0 121.333 47.167 218.666 141.5 291.999s217.833 110 370.5 110c37.333 0 81.333 -7.33301 132 -22
c0 173.333 -77.667 260 -233 260c-118.667 0 -210 -32 -274 -96l-80 159c36 29.333 85.833 54.5 149.5 75.5s124.5 31.5 182.5 31.5c195.333 0 325 -57.667 389 -173c98.667 115.333 221.334 173 368.001 173c148 0 265.833 -44.333 353.5 -133s131.5 -203.667 131.5 -345
c0 -30.667 -5 -62.667 -15 -96zM933.999 655.001h598c0 82 -28.167 148.5 -84.5 199.5s-130.5 76.5 -222.5 76.5c-82 0 -151 -30 -207 -90s-84 -122 -84 -186zM723.999 526.001c-40 13.333 -82.332 20 -126.999 20c-94.667 0 -172.834 -26.5 -234.501 -79.5
s-92.5 -109.5 -92.5 -169.5c0 -111.333 66 -167 198 -167c96.667 0 182 45.667 256 137v259z" />
    <glyph glyph-name="ccedilla" unicode="&#xe7;" horiz-adv-x="1014" 
d="M943 984l-94.001 -133.999c-19.333 19.333 -53.5 37.666 -102.5 54.999s-97.167 26 -144.5 26c-103.333 0 -185.333 -36.167 -246 -108.5s-91 -171.5 -91 -297.5c0 -125.333 31 -220.833 93 -286.5s148 -98.5 258 -98.5c85.333 0 171.333 33 258 99l75 -160
c-102 -66 -228.333 -99 -379 -99c-146 0 -266.667 49 -362 147s-143 230.667 -143 398c0 170.667 49.5 307.667 148.5 411s234.5 155 406.5 155c55.333 0 115.333 -11.667 180 -35s112.334 -47.333 143.001 -72zM406.999 -454.999l-24 99.001c52 0 95.333 9 130 27
s52 43 52 75c0 49.333 -30 74 -90 74v119c66 0 117.333 -18.667 154 -56s55 -83 55 -137c0 -62.667 -24.333 -111.834 -73 -147.501s-116.667 -53.5 -204 -53.5z" />
    <glyph glyph-name="egrave" unicode="&#xe8;" horiz-adv-x="1117" 
d="M1037 517l-772.002 -0.00195312c0 -125.333 34.333 -221.666 103 -288.999c60.667 -58.667 138.667 -88 234 -88c108.667 0 199.334 31.667 272.001 95l80 -137c-29.333 -29.333 -74.333 -54.666 -135 -75.999c-76 -28 -160.667 -42 -254 -42
c-134.667 0 -249 45.667 -343 137c-104.667 100.667 -157 236 -157 406c0 176.667 53.667 318.334 161 425.001c96 95.333 209.667 143 341 143c152.667 0 272.334 -43 359.001 -129c84 -82.667 126 -192.334 126 -329.001c0 -42 -5 -80.667 -15 -116zM575.998 930.998
c-84.667 0 -155.666 -27.333 -212.999 -82c-54.667 -52 -85.667 -116.667 -93 -194h593c0 76.667 -24 140.667 -72 192c-52.667 56 -124.334 84 -215.001 84zM586.999 1285l-226 333h197l169 -333h-140z" />
    <glyph glyph-name="eacute" unicode="&#xe9;" horiz-adv-x="1117" 
d="M1037 517l-772.002 -0.00195312c0 -125.333 34.333 -221.666 103 -288.999c60.667 -58.667 138.667 -88 234 -88c108.667 0 199.334 31.667 272.001 95l80 -137c-29.333 -29.333 -74.333 -54.666 -135 -75.999c-76 -28 -160.667 -42 -254 -42
c-134.667 0 -249 45.667 -343 137c-104.667 100.667 -157 236 -157 406c0 176.667 53.667 318.334 161 425.001c96 95.333 209.667 143 341 143c152.667 0 272.334 -43 359.001 -129c84 -82.667 126 -192.334 126 -329.001c0 -42 -5 -80.667 -15 -116zM575.998 930.998
c-84.667 0 -155.666 -27.333 -212.999 -82c-54.667 -52 -85.667 -116.667 -93 -194h593c0 76.667 -24 140.667 -72 192c-52.667 56 -124.334 84 -215.001 84zM823.999 1618l-226 -333h-140l169 333h197z" />
    <glyph glyph-name="ecircumflex" unicode="&#xea;" horiz-adv-x="1117" 
d="M1037 517l-772.002 -0.00195312c0 -125.333 34.333 -221.666 103 -288.999c60.667 -58.667 138.667 -88 234 -88c108.667 0 199.334 31.667 272.001 95l80 -137c-29.333 -29.333 -74.333 -54.666 -135 -75.999c-76 -28 -160.667 -42 -254 -42
c-134.667 0 -249 45.667 -343 137c-104.667 100.667 -157 236 -157 406c0 176.667 53.667 318.334 161 425.001c96 95.333 209.667 143 341 143c152.667 0 272.334 -43 359.001 -129c84 -82.667 126 -192.334 126 -329.001c0 -42 -5 -80.667 -15 -116zM575.998 930.998
c-84.667 0 -155.666 -27.333 -212.999 -82c-54.667 -52 -85.667 -116.667 -93 -194h593c0 76.667 -24 140.667 -72 192c-52.667 56 -124.334 84 -215.001 84zM728.999 1285l-163 189l-178 -189h-172l298 338h107l305 -338h-197z" />
    <glyph glyph-name="edieresis" unicode="&#xeb;" horiz-adv-x="1117" 
d="M1037 517l-772.002 -0.00195312c0 -125.333 34.333 -221.666 103 -288.999c60.667 -58.667 138.667 -88 234 -88c108.667 0 199.334 31.667 272.001 95l80 -137c-29.333 -29.333 -74.333 -54.666 -135 -75.999c-76 -28 -160.667 -42 -254 -42
c-134.667 0 -249 45.667 -343 137c-104.667 100.667 -157 236 -157 406c0 176.667 53.667 318.334 161 425.001c96 95.333 209.667 143 341 143c152.667 0 272.334 -43 359.001 -129c84 -82.667 126 -192.334 126 -329.001c0 -42 -5 -80.667 -15 -116zM575.998 930.998
c-84.667 0 -155.666 -27.333 -212.999 -82c-54.667 -52 -85.667 -116.667 -93 -194h593c0 76.667 -24 140.667 -72 192c-52.667 56 -124.334 84 -215.001 84zM326.999 1513c31.333 0 57.833 -10.833 79.5 -32.5s32.5 -48.167 32.5 -79.5s-10.833 -58 -32.5 -80
s-48.167 -33 -79.5 -33s-58 11 -80 33s-33 48.667 -33 80s11 57.833 33 79.5s48.667 32.5 80 32.5zM798.999 1513c31.333 0 58 -10.833 80 -32.5s33 -48.167 33 -79.5s-11 -58 -33 -80s-48.667 -33 -80 -33s-57.833 11 -79.5 33s-32.5 48.667 -32.5 80
s10.833 57.833 32.5 79.5s48.167 32.5 79.5 32.5z" />
    <glyph glyph-name="igrave" unicode="&#xec;" horiz-adv-x="584" 
d="M227 0v911h-147v160h340v-1071h-193zM288 1285l-226 333h197l169 -333h-140z" />
    <glyph glyph-name="iacute" unicode="&#xed;" horiz-adv-x="584" 
d="M227 0v911h-147v160h340v-1071h-193zM540 1618l-226 -333h-140l169 333h197z" />
    <glyph glyph-name="icircumflex" unicode="&#xee;" horiz-adv-x="584" 
d="M227 0v911h-147v160h340v-1071h-193zM443 1285l-163 189l-178 -189h-172l298 338h107l305 -338h-197z" />
    <glyph glyph-name="idieresis" unicode="&#xef;" horiz-adv-x="584" 
d="M227 0v911h-147v160h340v-1071h-193zM53 1513c31.333 0 57.833 -10.833 79.5 -32.5s32.5 -48.167 32.5 -79.5s-10.833 -58 -32.5 -80s-48.167 -33 -79.5 -33s-58 11 -80 33s-33 48.667 -33 80s11 57.833 33 79.5s48.667 32.5 80 32.5zM525 1513
c31.333 0 58 -10.833 80 -32.5s33 -48.167 33 -79.5s-11 -58 -33 -80s-48.667 -33 -80 -33s-57.833 11 -79.5 33s-32.5 48.667 -32.5 80s10.833 57.833 32.5 79.5s48.167 32.5 79.5 32.5z" />
    <glyph glyph-name="eth" unicode="&#xf0;" horiz-adv-x="1125" 
d="M357 1252l159.001 84.001c-60.667 73.333 -119.334 131.333 -176.001 174h251c19.333 -20 46 -50.667 80 -92l173 92l46 -85l-159 -86c122.667 -188.667 203.167 -340.834 241.5 -456.501s57.5 -230.5 57.5 -344.5c0 -169.333 -42.667 -304.666 -128 -405.999
s-204 -152 -356 -152c-152.667 0 -271.667 50.667 -357 152s-128 236.666 -128 405.999c0 162 43.833 294.667 131.5 398s205.5 155 353.5 155c51.333 0 100 -6 146 -18c-42.667 74.667 -81 135.667 -115 183l-174 -94zM251.001 538.001c0 -258.667 98.333 -388 295 -388
c94 0 166.5 35.333 217.5 106s76.5 164.667 76.5 282c0 255.333 -98 383 -294 383c-94 0 -166.667 -35 -218 -105s-77 -162.667 -77 -278z" />
    <glyph glyph-name="ntilde" unicode="&#xf1;" horiz-adv-x="1119" 
d="M794 0l-0.00195312 623c0 114 -17.167 193.833 -51.5 239.5s-91.833 68.5 -172.5 68.5c-43.333 0 -88.666 -13 -135.999 -39s-83.666 -58 -108.999 -96v-796h-190v1071h130l60 -138c62.667 105.333 165 158 307 158c234.667 0 352 -142.667 352 -428v-663h-190z
M849.998 1492c-35.333 -138 -99.332 -207 -191.999 -207c-42 0 -88.167 12.833 -138.5 38.5s-85.833 38.5 -106.5 38.5c-47.333 0 -83.333 -25.667 -108 -77h-91c9.33301 56 30.833 104.5 64.5 145.5s73.5 61.5 119.5 61.5c54.667 0 105.167 -12.833 151.5 -38.5
s81.166 -38.5 104.499 -38.5c54 0 90 25.667 108 77h88z" />
    <glyph glyph-name="ograve" unicode="&#xf2;" horiz-adv-x="1099" 
d="M65 538c0 165.333 44.5 298.833 133.5 400.5s206.167 152.5 351.5 152.5c153.333 0 272.333 -48.833 357 -146.5s127 -233.167 127 -406.5c0 -172.667 -43.333 -308.834 -130 -408.501s-204.667 -149.5 -354 -149.5c-152.667 0 -271.667 50.333 -357 151
s-128 236.334 -128 407.001zM265 538c0 -268.667 95.001 -403 285.001 -403c88.667 0 158.167 36 208.5 108s75.5 170.333 75.5 295c0 265.333 -94.667 398 -284 398c-86.667 0 -155.834 -35.333 -207.501 -106s-77.5 -168 -77.5 -292zM565.001 1285l-226 333h197l169 -333
h-140z" />
    <glyph glyph-name="oacute" unicode="&#xf3;" horiz-adv-x="1099" 
d="M65 538c0 165.333 44.5 298.833 133.5 400.5s206.167 152.5 351.5 152.5c153.333 0 272.333 -48.833 357 -146.5s127 -233.167 127 -406.5c0 -172.667 -43.333 -308.834 -130 -408.501s-204.667 -149.5 -354 -149.5c-152.667 0 -271.667 50.333 -357 151
s-128 236.334 -128 407.001zM265 538c0 -268.667 95.001 -403 285.001 -403c88.667 0 158.167 36 208.5 108s75.5 170.333 75.5 295c0 265.333 -94.667 398 -284 398c-86.667 0 -155.834 -35.333 -207.501 -106s-77.5 -168 -77.5 -292zM774.001 1618l-226 -333h-140l169 333
h197z" />
    <glyph glyph-name="ocircumflex" unicode="&#xf4;" horiz-adv-x="1099" 
d="M65 538c0 165.333 44.5 298.833 133.5 400.5s206.167 152.5 351.5 152.5c153.333 0 272.333 -48.833 357 -146.5s127 -233.167 127 -406.5c0 -172.667 -43.333 -308.834 -130 -408.501s-204.667 -149.5 -354 -149.5c-152.667 0 -271.667 50.333 -357 151
s-128 236.334 -128 407.001zM265 538c0 -268.667 95.001 -403 285.001 -403c88.667 0 158.167 36 208.5 108s75.5 170.333 75.5 295c0 265.333 -94.667 398 -284 398c-86.667 0 -155.834 -35.333 -207.501 -106s-77.5 -168 -77.5 -292zM709.001 1285l-163 189l-178 -189
h-172l298 338h107l305 -338h-197z" />
    <glyph glyph-name="otilde" unicode="&#xf5;" horiz-adv-x="1099" 
d="M65 538c0 165.333 44.5 298.833 133.5 400.5s206.167 152.5 351.5 152.5c153.333 0 272.333 -48.833 357 -146.5s127 -233.167 127 -406.5c0 -172.667 -43.333 -308.834 -130 -408.501s-204.667 -149.5 -354 -149.5c-152.667 0 -271.667 50.333 -357 151
s-128 236.334 -128 407.001zM265 538c0 -268.667 95.001 -403 285.001 -403c88.667 0 158.167 36 208.5 108s75.5 170.333 75.5 295c0 265.333 -94.667 398 -284 398c-86.667 0 -155.834 -35.333 -207.501 -106s-77.5 -168 -77.5 -292zM880.001 1492
c-35.333 -138 -99.332 -207 -191.999 -207c-42 0 -88.167 12.833 -138.5 38.5s-85.833 38.5 -106.5 38.5c-47.333 0 -83.333 -25.667 -108 -77h-91c9.33301 56 30.833 104.5 64.5 145.5s73.5 61.5 119.5 61.5c54.667 0 105.167 -12.833 151.5 -38.5
s81.166 -38.5 104.499 -38.5c54 0 90 25.667 108 77h88z" />
    <glyph glyph-name="odieresis" unicode="&#xf6;" horiz-adv-x="1099" 
d="M65 538c0 165.333 44.5 298.833 133.5 400.5s206.167 152.5 351.5 152.5c153.333 0 272.333 -48.833 357 -146.5s127 -233.167 127 -406.5c0 -172.667 -43.333 -308.834 -130 -408.501s-204.667 -149.5 -354 -149.5c-152.667 0 -271.667 50.333 -357 151
s-128 236.334 -128 407.001zM265 538c0 -268.667 95.001 -403 285.001 -403c88.667 0 158.167 36 208.5 108s75.5 170.333 75.5 295c0 265.333 -94.667 398 -284 398c-86.667 0 -155.834 -35.333 -207.501 -106s-77.5 -168 -77.5 -292zM328.001 1513
c31.333 0 57.833 -10.833 79.5 -32.5s32.5 -48.167 32.5 -79.5s-10.833 -58 -32.5 -80s-48.167 -33 -79.5 -33s-58 11 -80 33s-33 48.667 -33 80s11 57.833 33 79.5s48.667 32.5 80 32.5zM800.001 1513c31.333 0 58 -10.833 80 -32.5s33 -48.167 33 -79.5s-11 -58 -33 -80
s-48.667 -33 -80 -33s-57.833 11 -79.5 33s-32.5 48.667 -32.5 80s10.833 57.833 32.5 79.5s48.167 32.5 79.5 32.5z" />
    <glyph glyph-name="divide" unicode="&#xf7;" 
d="M694 1000c0 -41.333 -14.667 -76.833 -44 -106.5s-64.666 -44.5 -105.999 -44.5s-76.666 14.833 -105.999 44.5s-44 65.167 -44 106.5s14.667 76.666 44 105.999s64.666 44 105.999 44s76.666 -14.667 105.999 -44s44 -64.666 44 -105.999zM960 705v-141h-838v141h838z
M694 250c0 -41.333 -14.667 -76.833 -44 -106.5s-64.666 -44.5 -105.999 -44.5s-76.666 14.833 -105.999 44.5s-44 65.167 -44 106.5s14.667 76.666 44 105.999s64.666 44 105.999 44s76.666 -14.667 105.999 -44s44 -64.666 44 -105.999z" />
    <glyph glyph-name="oslash" unicode="&#xf8;" horiz-adv-x="1117" 
d="M270 58l-58 -78h-151l119 162c-79.333 99.333 -119 231.333 -119 396c0 165.333 44.5 298.833 133.5 400.5s206.167 152.5 351.5 152.5c110 0 202.667 -25.333 278 -76l56 76h150l-117 -159c78 -97.333 117 -228.666 117 -393.999
c0 -172.667 -43.333 -308.834 -130 -408.501s-204.667 -149.5 -354 -149.5c-108 0 -200 26 -276 78zM295 297l424 575c-50 36 -107.667 54 -173 54c-89.333 0 -160.833 -34.333 -214.5 -103s-80.5 -163.667 -80.5 -285c0 -98.667 14.667 -179 44 -241zM373 199
c46 -42.667 103.668 -64 173.001 -64c89.333 0 160.666 36.167 213.999 108.5s80 170.5 80 294.5c0 97.333 -14.333 176.333 -43 237z" />
    <glyph glyph-name="ugrave" unicode="&#xf9;" horiz-adv-x="1119" 
d="M315 1071l-0.00292969 -683c0 -165.333 71.667 -248 215 -248c62.667 0 120 18 172 54s86.333 77.667 103 125v752h190v-1071h-190v148c-21.333 -42 -64.166 -80.5 -128.499 -115.5s-127.166 -52.5 -188.499 -52.5c-117.333 0 -207.166 33.667 -269.499 101
s-93.5 163 -93.5 287v703h190zM546.997 1285l-226 333h197l169 -333h-140z" />
    <glyph glyph-name="uacute" unicode="&#xfa;" horiz-adv-x="1119" 
d="M315 1071l-0.00292969 -683c0 -165.333 71.667 -248 215 -248c62.667 0 120 18 172 54s86.333 77.667 103 125v752h190v-1071h-190v148c-21.333 -42 -64.166 -80.5 -128.499 -115.5s-127.166 -52.5 -188.499 -52.5c-117.333 0 -207.166 33.667 -269.499 101
s-93.5 163 -93.5 287v703h190zM739.997 1618l-226 -333h-140l169 333h197z" />
    <glyph glyph-name="ucircumflex" unicode="&#xfb;" horiz-adv-x="1119" 
d="M315 1071l-0.00292969 -683c0 -165.333 71.667 -248 215 -248c62.667 0 120 18 172 54s86.333 77.667 103 125v752h190v-1071h-190v148c-21.333 -42 -64.166 -80.5 -128.499 -115.5s-127.166 -52.5 -188.499 -52.5c-117.333 0 -207.166 33.667 -269.499 101
s-93.5 163 -93.5 287v703h190zM678.997 1285l-163 189l-178 -189h-172l298 338h107l305 -338h-197z" />
    <glyph glyph-name="udieresis" unicode="&#xfc;" horiz-adv-x="1119" 
d="M315 1071l-0.00292969 -683c0 -165.333 71.667 -248 215 -248c62.667 0 120 18 172 54s86.333 77.667 103 125v752h190v-1071h-190v148c-21.333 -42 -64.166 -80.5 -128.499 -115.5s-127.166 -52.5 -188.499 -52.5c-117.333 0 -207.166 33.667 -269.499 101
s-93.5 163 -93.5 287v703h190zM293.997 1513c31.333 0 57.833 -10.833 79.5 -32.5s32.5 -48.167 32.5 -79.5s-10.833 -58 -32.5 -80s-48.167 -33 -79.5 -33s-58 11 -80 33s-33 48.667 -33 80s11 57.833 33 79.5s48.667 32.5 80 32.5zM765.997 1513
c31.333 0 58 -10.833 80 -32.5s33 -48.167 33 -79.5s-11 -58 -33 -80s-48.667 -33 -80 -33s-57.833 11 -79.5 33s-32.5 48.667 -32.5 80s10.833 57.833 32.5 79.5s48.167 32.5 79.5 32.5z" />
    <glyph glyph-name="yacute" unicode="&#xfd;" horiz-adv-x="1010" 
d="M544 -182c-24.667 -68 -76.5 -124.667 -155.5 -170s-167.167 -68 -264.5 -68v170c79.333 0 147.333 18.5 204 55.5s85 82.167 85 135.5c0 58.667 -10.333 116.5 -31 173.5l-80 211.5l-290 745h194l315 -828l283 828h194zM755 1618l-226 -333h-140l169 333h197z" />
    <glyph glyph-name="thorn" unicode="&#xfe;" horiz-adv-x="1133" 
d="M325 59v-478.999h-190v1930h190v-527c72 72 159 108 261 108c152 0 270.333 -47.333 355 -142s127 -233.334 127 -416.001c0 -162.667 -42.667 -295.5 -128 -398.5s-208.666 -154.5 -369.999 -154.5c-110.667 0 -192.334 26.333 -245.001 79zM325 830.001
l0.00195312 -603.998c59.333 -50.667 122.333 -76 189 -76c124 0 214 31.167 270 93.5s84 161.166 84 296.499c0 133.333 -27.667 230.166 -83 290.499s-145.333 90.5 -270 90.5c-26.667 0 -59.334 -9.33301 -98.001 -28s-69.334 -39.667 -92.001 -63z" />
    <glyph glyph-name="ydieresis" unicode="&#xff;" horiz-adv-x="1010" 
d="M544 -182c-24.667 -68 -76.5 -124.667 -155.5 -170s-167.167 -68 -264.5 -68v170c79.333 0 147.333 18.5 204 55.5s85 82.167 85 135.5c0 58.667 -10.333 116.5 -31 173.5l-80 211.5l-290 745h194l315 -828l283 828h194zM264 1513c31.333 0 57.833 -10.833 79.5 -32.5
s32.5 -48.167 32.5 -79.5s-10.833 -58 -32.5 -80s-48.167 -33 -79.5 -33s-58 11 -80 33s-33 48.667 -33 80s11 57.833 33 79.5s48.667 32.5 80 32.5zM736 1513c31.333 0 58 -10.833 80 -32.5s33 -48.167 33 -79.5s-11 -58 -33 -80s-48.667 -33 -80 -33s-57.833 11 -79.5 33
s-32.5 48.667 -32.5 80s10.833 57.833 32.5 79.5s48.167 32.5 79.5 32.5z" />
    <glyph glyph-name="Amacron" unicode="&#x100;" horiz-adv-x="1208" 
d="M982 0l-101 309h-545l-108 -309h-224l595 1485h53l552 -1485h-222zM616 1101l-227 -645h435zM995 1726v-141h-738v141h738z" />
    <glyph glyph-name="amacron" unicode="&#x101;" horiz-adv-x="1076" 
d="M740 123c-76 -95.333 -192.333 -143 -349 -143c-84 0 -156.833 30.5 -218.5 91.5s-92.5 136.833 -92.5 227.5c0 108.667 47.5 200.5 142.5 275.5s216.167 112.5 363.5 112.5c40 0 85.333 -8.66699 136 -26c0 173.333 -77.333 260 -232 260c-118.667 0 -210 -32 -274 -96
l-80 159c36 29.333 85.833 54.5 149.5 75.5s124.5 31.5 182.5 31.5c155.333 0 268.166 -35.333 338.499 -106s105.5 -183 105.5 -337v-384c0 -94 28 -156.667 84 -188v-95c-77.333 0 -135.166 11 -173.499 33s-65.833 58.333 -82.5 109zM722 526
c-60 13.333 -102 19.999 -126 19.999c-96 0 -174.333 -24.667 -235 -74s-91 -107.666 -91 -174.999c0 -111.333 65.667 -167 197 -167c96 0 181 45.667 255 137v259zM863 1426v-141h-738v141h738z" />
    <glyph glyph-name="Abreve" unicode="&#x102;" horiz-adv-x="1208" 
d="M982 0l-101 309h-545l-108 -309h-224l595 1485h53l552 -1485h-222zM616 1101l-227 -645h435zM954 1910c0 -78.667 -31.334 -152.498 -94.001 -221.498s-146 -103.5 -250 -103.5c-99.333 0 -177.333 31.333 -234 94s-85 139.667 -85 231h141
c-2 -40.667 15 -79.334 51 -116.001s78.333 -55 127 -55c56.667 0 104.334 17.167 143.001 51.5s58 74.166 58 119.499h143z" />
    <glyph glyph-name="abreve" unicode="&#x103;" horiz-adv-x="1076" 
d="M740 123c-76 -95.333 -192.333 -143 -349 -143c-84 0 -156.833 30.5 -218.5 91.5s-92.5 136.833 -92.5 227.5c0 108.667 47.5 200.5 142.5 275.5s216.167 112.5 363.5 112.5c40 0 85.333 -8.66699 136 -26c0 173.333 -77.333 260 -232 260c-118.667 0 -210 -32 -274 -96
l-80 159c36 29.333 85.833 54.5 149.5 75.5s124.5 31.5 182.5 31.5c155.333 0 268.166 -35.333 338.499 -106s105.5 -183 105.5 -337v-384c0 -94 28 -156.667 84 -188v-95c-77.333 0 -135.166 11 -173.499 33s-65.833 58.333 -82.5 109zM722 526
c-60 13.333 -102 19.999 -126 19.999c-96 0 -174.333 -24.667 -235 -74s-91 -107.666 -91 -174.999c0 -111.333 65.667 -167 197 -167c96 0 181 45.667 255 137v259zM850 1610c0 -78.667 -31.334 -152.498 -94.001 -221.498s-146 -103.5 -250 -103.5
c-99.333 0 -177.333 31.333 -234 94s-85 139.667 -85 231h141c-2 -40.667 15 -79.334 51 -116.001s78.333 -55 127 -55c56.667 0 104.334 17.167 143.001 51.5s58 74.166 58 119.499h143z" />
    <glyph glyph-name="Aogonek" unicode="&#x104;" horiz-adv-x="1208" 
d="M1331 -338c-64 -23.333 -123.332 -34.999 -177.999 -34.999c-78 0 -142.833 23 -194.5 69s-77.5 105.667 -77.5 179c0 75.333 27.333 136.666 82 183.999l-82 250h-545l-108 -309h-224l595 1485h53l552 -1485h-65c-16 0 -35.5 -10.333 -58.5 -31
s-34.5 -54.667 -34.5 -102c0 -26.667 11.167 -49 33.5 -67s48.166 -27 77.499 -27c36 0 71.667 10.333 107 31zM824.001 456.001l-208 645l-227 -645h435z" />
    <glyph glyph-name="aogonek" unicode="&#x105;" horiz-adv-x="1076" 
d="M1103 -196l67.0029 -141.999c-64 -23.333 -123.333 -35 -178 -35c-78 0 -142.833 23 -194.5 69s-77.5 105.667 -77.5 179c0 62.667 20.333 120 61 172c-16.667 19.333 -30.334 44.666 -41.001 75.999c-76 -95.333 -192.333 -143 -349 -143
c-84 0 -156.833 30.5 -218.5 91.5s-92.5 136.833 -92.5 227.5c0 108.667 47.5 200.5 142.5 275.5s216.167 112.5 363.5 112.5c40 0 85.333 -8.66699 136 -26c0 173.333 -77.333 260 -232 260c-118.667 0 -210 -32 -274 -96l-80 159c36 29.333 85.833 54.5 149.5 75.5
s124.5 31.5 182.5 31.5c155.333 0 268.166 -35.333 338.499 -106s105.5 -183 105.5 -337v-384c0 -94 28 -156.667 84 -188v-95c-20.667 0 -36.334 0.333008 -47.001 1c-42.667 -24.667 -64 -63 -64 -115c0 -62.667 37 -94 111 -94c36 0 71.667 10.333 107 31z
M722.003 526.001c-60 13.333 -102 19.999 -126 19.999c-96 0 -174.333 -24.667 -235 -74s-91 -107.666 -91 -174.999c0 -111.333 65.667 -167 197 -167c96 0 181 45.667 255 137v259z" />
    <glyph glyph-name="Cacute" unicode="&#x106;" horiz-adv-x="1225" 
d="M1085 1411l-66.999 -170.999c-64 46.667 -164.667 70 -302 70c-128.667 0 -231.834 -55.333 -309.501 -166s-116.5 -253.334 -116.5 -428.001c0 -166.667 39.833 -301.834 119.5 -405.501s182.5 -155.5 308.5 -155.5c137.333 0 243 48.667 317 146l110 -153
c-116 -115.333 -265.333 -173 -448 -173c-191.333 0 -342 69 -452 207s-165 320 -165 546c0 218.667 58.667 400.334 176 545.001s269 217 455 217c159.333 0 284 -26.333 374 -79zM954.001 1918l-226 -333h-140l169 333h197z" />
    <glyph glyph-name="cacute" unicode="&#x107;" horiz-adv-x="1014" 
d="M943 984l-94.001 -133.999c-19.333 19.333 -53.5 37.666 -102.5 54.999s-97.167 26 -144.5 26c-103.333 0 -185.333 -36.167 -246 -108.5s-91 -171.5 -91 -297.5c0 -125.333 31 -220.833 93 -286.5s148 -98.5 258 -98.5c85.333 0 171.333 33 258 99l75 -160
c-102 -66 -228.333 -99 -379 -99c-146 0 -266.667 49 -362 147s-143 230.667 -143 398c0 170.667 49.5 307.667 148.5 411s234.5 155 406.5 155c55.333 0 115.333 -11.667 180 -35s112.334 -47.333 143.001 -72zM833.999 1618l-226 -333h-140l169 333h197z" />
    <glyph glyph-name="Ccircumflex" unicode="&#x108;" horiz-adv-x="1225" 
d="M1085 1411l-66.999 -170.999c-64 46.667 -164.667 70 -302 70c-128.667 0 -231.834 -55.333 -309.501 -166s-116.5 -253.334 -116.5 -428.001c0 -166.667 39.833 -301.834 119.5 -405.501s182.5 -155.5 308.5 -155.5c137.333 0 243 48.667 317 146l110 -153
c-116 -115.333 -265.333 -173 -448 -173c-191.333 0 -342 69 -452 207s-165 320 -165 546c0 218.667 58.667 400.334 176 545.001s269 217 455 217c159.333 0 284 -26.333 374 -79zM874.001 1585l-163 189l-178 -189h-172l298 338h107l305 -338h-197z" />
    <glyph glyph-name="ccircumflex" unicode="&#x109;" horiz-adv-x="1014" 
d="M943 984l-94.001 -133.999c-19.333 19.333 -53.5 37.666 -102.5 54.999s-97.167 26 -144.5 26c-103.333 0 -185.333 -36.167 -246 -108.5s-91 -171.5 -91 -297.5c0 -125.333 31 -220.833 93 -286.5s148 -98.5 258 -98.5c85.333 0 171.333 33 258 99l75 -160
c-102 -66 -228.333 -99 -379 -99c-146 0 -266.667 49 -362 147s-143 230.667 -143 398c0 170.667 49.5 307.667 148.5 411s234.5 155 406.5 155c55.333 0 115.333 -11.667 180 -35s112.334 -47.333 143.001 -72zM745.999 1285l-163 189l-178 -189h-172l298 338h107l305 -338
h-197z" />
    <glyph glyph-name="Cdot" unicode="&#x10a;" horiz-adv-x="1225" 
d="M1085 1411l-66.999 -170.999c-64 46.667 -164.667 70 -302 70c-128.667 0 -231.834 -55.333 -309.501 -166s-116.5 -253.334 -116.5 -428.001c0 -166.667 39.833 -301.834 119.5 -405.501s182.5 -155.5 308.5 -155.5c137.333 0 243 48.667 317 146l110 -153
c-116 -115.333 -265.333 -173 -448 -173c-191.333 0 -342 69 -452 207s-165 320 -165 546c0 218.667 58.667 400.334 176 545.001s269 217 455 217c159.333 0 284 -26.333 374 -79zM695.001 1820c32.667 0 60.499 -11.501 83.499 -34.501s34.5 -50.5 34.5 -82.5
c0 -32.667 -11.5 -60.5 -34.5 -83.5s-50.833 -34.5 -83.5 -34.5c-32 0 -59.5 11.5 -82.5 34.5s-34.5 50.833 -34.5 83.5s11.333 60.334 34 83.001s50.334 34 83.001 34z" />
    <glyph glyph-name="cdot" unicode="&#x10b;" horiz-adv-x="1014" 
d="M943 984l-94.001 -133.999c-19.333 19.333 -53.5 37.666 -102.5 54.999s-97.167 26 -144.5 26c-103.333 0 -185.333 -36.167 -246 -108.5s-91 -171.5 -91 -297.5c0 -125.333 31 -220.833 93 -286.5s148 -98.5 258 -98.5c85.333 0 171.333 33 258 99l75 -160
c-102 -66 -228.333 -99 -379 -99c-146 0 -266.667 49 -362 147s-143 230.667 -143 398c0 170.667 49.5 307.667 148.5 411s234.5 155 406.5 155c55.333 0 115.333 -11.667 180 -35s112.334 -47.333 143.001 -72zM574.999 1520c32.667 0 60.499 -11.501 83.499 -34.501
s34.5 -50.5 34.5 -82.5c0 -32.667 -11.5 -60.5 -34.5 -83.5s-50.833 -34.5 -83.5 -34.5c-32 0 -59.5 11.5 -82.5 34.5s-34.5 50.833 -34.5 83.5s11.333 60.334 34 83.001s50.334 34 83.001 34z" />
    <glyph glyph-name="Ccaron" unicode="&#x10c;" horiz-adv-x="1225" 
d="M1085 1411l-66.999 -170.999c-64 46.667 -164.667 70 -302 70c-128.667 0 -231.834 -55.333 -309.501 -166s-116.5 -253.334 -116.5 -428.001c0 -166.667 39.833 -301.834 119.5 -405.501s182.5 -155.5 308.5 -155.5c137.333 0 243 48.667 317 146l110 -153
c-116 -115.333 -265.333 -173 -448 -173c-191.333 0 -342 69 -452 207s-165 320 -165 546c0 218.667 58.667 400.334 176 545.001s269 217 455 217c159.333 0 284 -26.333 374 -79zM1049 1919l-305 -334h-107l-298 338h172l178 -192l163 188h197z" />
    <glyph glyph-name="ccaron" unicode="&#x10d;" horiz-adv-x="1014" 
d="M943 984l-94.001 -133.999c-19.333 19.333 -53.5 37.666 -102.5 54.999s-97.167 26 -144.5 26c-103.333 0 -185.333 -36.167 -246 -108.5s-91 -171.5 -91 -297.5c0 -125.333 31 -220.833 93 -286.5s148 -98.5 258 -98.5c85.333 0 171.333 33 258 99l75 -160
c-102 -66 -228.333 -99 -379 -99c-146 0 -266.667 49 -362 147s-143 230.667 -143 398c0 170.667 49.5 307.667 148.5 411s234.5 155 406.5 155c55.333 0 115.333 -11.667 180 -35s112.334 -47.333 143.001 -72zM918.999 1619l-305 -334h-107l-298 338h172l178 -192l163 188
h197z" />
    <glyph glyph-name="Dcaron" unicode="&#x10e;" horiz-adv-x="1256" 
d="M446 0h-295v1465c188 6.66699 308.333 10 361 10c204.667 0 366.667 -62.167 486 -186.5s179 -289.833 179 -496.5c0 -528 -243.667 -792 -731 -792zM351 1285l0.000976562 -1095c44.667 -6.66699 100 -10 166 -10c140 0 250 52.5 330 157.5s120 250.833 120 437.5
c0 346.667 -155.667 520 -467 520c-18.667 0 -68.334 -3.33301 -149.001 -10zM940.001 1919l-305 -334h-107l-298 338h172l178 -192l163 188h197z" />
    <glyph glyph-name="dcaron" unicode="&#x10f;" horiz-adv-x="1416" 
d="M814 1v78.999c-66 -66 -162 -99 -288 -99c-134 0 -242.667 48 -326 144s-125 224 -125 384c0 160.667 48 297.834 144 411.501s210.333 170.5 343 170.5c110.667 0 194.667 -26 252 -78v497h190v-1509h-190zM814 822.999c-48 72 -113.667 108 -197 108
c-102 0 -184.5 -38 -247.5 -114s-94.5 -172.667 -94.5 -290c0 -258 117.333 -387 352 -387c30 0 66 9.5 108 28.5s68.333 39.167 79 60.5v594zM1236 1083l-47 63c48 38.667 75.167 65.5 81.5 80.5s9.5 29.833 9.5 44.5c0 22 -11.5 44.167 -34.5 66.5s-34.5 45.5 -34.5 69.5
c0 68.667 34 103 102 103c72 0 108 -41.333 108 -124c0 -125.333 -61.667 -226.333 -185 -303z" />
    <glyph glyph-name="Dslash" unicode="&#x110;" horiz-adv-x="1256" 
d="M15 691v160h135v614c188 6.66699 308.333 10 361 10c204.667 0 366.667 -62.167 486 -186.5s179 -289.833 179 -496.5c0 -528 -243.667 -792 -731 -792h-295v691h-135zM350 851h149.001v-160h-149v-501c44.667 -6.66699 100 -10 166 -10c140 0 250 52.5 330 157.5
s120 250.833 120 437.5c0 346.667 -155.667 520 -467 520c-18.667 0 -68.334 -3.33301 -149.001 -10v-434z" />
    <glyph glyph-name="dcroat" unicode="&#x111;" horiz-adv-x="1141" 
d="M1004 1l-190 -0.000976562v79c-66 -66 -162 -99 -288 -99c-134 0 -242.667 48 -326 144s-125 224 -125 384c0 160.667 48 297.834 144 411.501s210.333 170.5 343 170.5c110.667 0 194.667 -26 252 -78v178h-249v150h249v169h190v-169h119v-150h-119v-1190zM814 238.999
v574c-48 72 -113.667 108 -197 108c-104 0 -187 -36.833 -249 -110.5s-93 -168.167 -93 -283.5c0 -251.333 117.333 -377 352 -377c38.667 0 79.5 11.833 122.5 35.5s64.5 41.5 64.5 53.5z" />
    <glyph glyph-name="Emacron" unicode="&#x112;" horiz-adv-x="1097" 
d="M350 1285v-407h484v-170h-484v-528h664v-180h-864v1465h875v-180h-675zM956 1726v-141h-738v141h738z" />
    <glyph glyph-name="emacron" unicode="&#x113;" horiz-adv-x="1117" 
d="M1037 517l-772.002 -0.00195312c0 -125.333 34.333 -221.666 103 -288.999c60.667 -58.667 138.667 -88 234 -88c108.667 0 199.334 31.667 272.001 95l80 -137c-29.333 -29.333 -74.333 -54.666 -135 -75.999c-76 -28 -160.667 -42 -254 -42
c-134.667 0 -249 45.667 -343 137c-104.667 100.667 -157 236 -157 406c0 176.667 53.667 318.334 161 425.001c96 95.333 209.667 143 341 143c152.667 0 272.334 -43 359.001 -129c84 -82.667 126 -192.334 126 -329.001c0 -42 -5 -80.667 -15 -116zM575.998 930.998
c-84.667 0 -155.666 -27.333 -212.999 -82c-54.667 -52 -85.667 -116.667 -93 -194h593c0 76.667 -24 140.667 -72 192c-52.667 56 -124.334 84 -215.001 84zM935.999 1426v-141h-738v141h738z" />
    <glyph glyph-name="Ebreve" unicode="&#x114;" horiz-adv-x="1097" 
d="M350 1285v-407h484v-170h-484v-528h664v-180h-864v1465h875v-180h-675zM919 1910c0 -78.667 -31.334 -152.498 -94.001 -221.498s-146 -103.5 -250 -103.5c-99.333 0 -177.333 31.333 -234 94s-85 139.667 -85 231h141c-2 -40.667 15 -79.334 51 -116.001
s78.333 -55 127 -55c56.667 0 104.334 17.167 143.001 51.5s58 74.166 58 119.499h143z" />
    <glyph glyph-name="ebreve" unicode="&#x115;" horiz-adv-x="1117" 
d="M1037 517l-772.002 -0.00195312c0 -125.333 34.333 -221.666 103 -288.999c60.667 -58.667 138.667 -88 234 -88c108.667 0 199.334 31.667 272.001 95l80 -137c-29.333 -29.333 -74.333 -54.666 -135 -75.999c-76 -28 -160.667 -42 -254 -42
c-134.667 0 -249 45.667 -343 137c-104.667 100.667 -157 236 -157 406c0 176.667 53.667 318.334 161 425.001c96 95.333 209.667 143 341 143c152.667 0 272.334 -43 359.001 -129c84 -82.667 126 -192.334 126 -329.001c0 -42 -5 -80.667 -15 -116zM575.998 930.998
c-84.667 0 -155.666 -27.333 -212.999 -82c-54.667 -52 -85.667 -116.667 -93 -194h593c0 76.667 -24 140.667 -72 192c-52.667 56 -124.334 84 -215.001 84zM909.999 1610c0 -78.667 -31.334 -152.498 -94.001 -221.498s-146 -103.5 -250 -103.5
c-99.333 0 -177.333 31.333 -234 94s-85 139.667 -85 231h141c-2 -40.667 15 -79.334 51 -116.001s78.333 -55 127 -55c56.667 0 104.334 17.167 143.001 51.5s58 74.166 58 119.499h143z" />
    <glyph glyph-name="Edot" unicode="&#x116;" horiz-adv-x="1097" 
d="M350 1285v-407h484v-170h-484v-528h664v-180h-864v1465h875v-180h-675zM587 1820c32.667 0 60.499 -11.501 83.499 -34.501s34.5 -50.5 34.5 -82.5c0 -32.667 -11.5 -60.5 -34.5 -83.5s-50.833 -34.5 -83.5 -34.5c-32 0 -59.5 11.5 -82.5 34.5s-34.5 50.833 -34.5 83.5
s11.333 60.334 34 83.001s50.334 34 83.001 34z" />
    <glyph glyph-name="edot" unicode="&#x117;" horiz-adv-x="1117" 
d="M1037 517l-772.002 -0.00195312c0 -125.333 34.333 -221.666 103 -288.999c60.667 -58.667 138.667 -88 234 -88c108.667 0 199.334 31.667 272.001 95l80 -137c-29.333 -29.333 -74.333 -54.666 -135 -75.999c-76 -28 -160.667 -42 -254 -42
c-134.667 0 -249 45.667 -343 137c-104.667 100.667 -157 236 -157 406c0 176.667 53.667 318.334 161 425.001c96 95.333 209.667 143 341 143c152.667 0 272.334 -43 359.001 -129c84 -82.667 126 -192.334 126 -329.001c0 -42 -5 -80.667 -15 -116zM575.998 930.998
c-84.667 0 -155.666 -27.333 -212.999 -82c-54.667 -52 -85.667 -116.667 -93 -194h593c0 76.667 -24 140.667 -72 192c-52.667 56 -124.334 84 -215.001 84zM556.999 1520c32.667 0 60.499 -11.501 83.499 -34.501s34.5 -50.5 34.5 -82.5
c0 -32.667 -11.5 -60.5 -34.5 -83.5s-50.833 -34.5 -83.5 -34.5c-32 0 -59.5 11.5 -82.5 34.5s-34.5 50.833 -34.5 83.5s11.333 60.334 34 83.001s50.334 34 83.001 34z" />
    <glyph glyph-name="Eogonek" unicode="&#x118;" horiz-adv-x="1097" 
d="M976 -196l67 -142c-64 -23.333 -123.333 -35 -178 -35c-78 0 -142.833 23 -194.5 69s-77.5 105.667 -77.5 179c0 44 10.667 85.667 32 125h-475v1465h875v-180h-674v-407h483v-170h-483v-528h663v-180h-158c-2.66699 -0 -16.5 -7.66699 -41.5 -23s-40.667 -32 -47 -50
s-9.5 -38 -9.5 -60c0 -62.667 37 -94 111 -94c36 0 71.667 10.333 107 31z" />
    <glyph glyph-name="eogonek" unicode="&#x119;" horiz-adv-x="1117" 
d="M865 -338c-64 -23.333 -123.333 -34.999 -178 -34.999c-78 0 -142.833 23 -194.5 69s-77.5 105.667 -77.5 179c0 30.667 7.33301 71 22 121c-114.667 28.667 -205.334 89.5 -272.001 182.5s-100 207.833 -100 344.5c0 169.333 49.167 306.333 147.5 411
s216.5 157 354.5 157c150 0 268.333 -41.667 355 -125s130 -194.333 130 -333c0 -30.667 -5 -69.334 -15 -116.001h-772c0 -119.333 30.667 -212 92 -278s143 -99 245 -99c108.667 0 199.334 31.667 272.001 95l79 -153c-81.333 -60.667 -184.333 -94 -309 -100
c-42.667 -24.667 -64 -63 -64 -115c0 -62.667 37 -94 111 -94c36 0 71.667 10.333 107 31zM863 655.001c0 80 -26 146.001 -78 198.001s-121.667 78 -209 78c-83.333 0 -153.333 -26.333 -210 -79s-88.667 -118.334 -96 -197.001h593z" />
    <glyph glyph-name="Ecaron" unicode="&#x11a;" horiz-adv-x="1097" 
d="M350 1285v-407h484v-170h-484v-528h664v-180h-864v1465h875v-180h-675zM939 1919l-305 -334h-107l-298 338h172l178 -192l163 188h197z" />
    <glyph glyph-name="ecaron" unicode="&#x11b;" horiz-adv-x="1117" 
d="M1037 517l-772.002 -0.00195312c0 -125.333 34.333 -221.666 103 -288.999c60.667 -58.667 138.667 -88 234 -88c108.667 0 199.334 31.667 272.001 95l80 -137c-29.333 -29.333 -74.333 -54.666 -135 -75.999c-76 -28 -160.667 -42 -254 -42
c-134.667 0 -249 45.667 -343 137c-104.667 100.667 -157 236 -157 406c0 176.667 53.667 318.334 161 425.001c96 95.333 209.667 143 341 143c152.667 0 272.334 -43 359.001 -129c84 -82.667 126 -192.334 126 -329.001c0 -42 -5 -80.667 -15 -116zM575.998 930.998
c-84.667 0 -155.666 -27.333 -212.999 -82c-54.667 -52 -85.667 -116.667 -93 -194h593c0 76.667 -24 140.667 -72 192c-52.667 56 -124.334 84 -215.001 84zM908.999 1619l-305 -334h-107l-298 338h172l178 -192l163 188h197z" />
    <glyph glyph-name="Gcircumflex" unicode="&#x11c;" horiz-adv-x="1385" 
d="M1165 1363l-83 -165.001c-100.667 74.667 -199.334 112 -296.001 112c-153.333 0 -274.333 -54 -363 -162s-133 -251 -133 -429c0 -169.333 43.5 -305.666 130.5 -408.999s205.5 -155 355.5 -155c106.667 0 193 32 259 96v343h-203v170h403v-638
c-53.333 -45.333 -127.666 -81.833 -222.999 -109.5s-188 -41.5 -278 -41.5c-202 0 -361.5 68.5 -478.5 205.5s-175.5 319.167 -175.5 546.5c0 226.667 64.167 410.5 192.5 551.5s301.5 211.5 519.5 211.5c152.667 0 277 -42.333 373 -127zM892 1585l-163 189l-178 -189
h-172l298 338h107l305 -338h-197z" />
    <glyph glyph-name="gcircumflex" unicode="&#x11d;" horiz-adv-x="1028" 
d="M96 -293l102.998 151.998c110.667 -74 212.667 -111 306 -111c86 0 153.833 14.833 203.5 44.5s74.5 66.5 74.5 110.5c0 86.667 -62.667 130 -188 130c-21.333 0 -60 -5.33301 -116 -16s-99.667 -16 -131 -16c-152 0 -228 57.333 -228 172
c0 35.333 17.833 67.333 53.5 96s79.834 49.334 132.501 62.001c-150.667 70.667 -226 193.334 -226 368.001c0 112 39 205.333 117 280s174.333 112 289 112c105.333 0 187.666 -21.667 246.999 -65l95 114l124 -117l-114 -86c48.667 -63.333 73 -146 73 -248
c0 -108 -33.667 -198.667 -101 -272s-155.666 -115.333 -264.999 -126l-157 -16c-18.667 -2 -43.667 -9.16699 -75 -21.5s-47 -28.5 -47 -48.5c0 -27.333 32.667 -41 98 -41c28.667 0 73.334 5.16699 134.001 15.5s105.667 15.5 135 15.5
c105.333 0 187.5 -25.167 246.5 -75.5s88.5 -120.166 88.5 -209.499c0 -98.667 -44.167 -178.334 -132.5 -239.001s-200.166 -91 -335.499 -91c-69.333 0 -142.333 12.333 -219 37s-138.334 54.667 -185.001 90zM498.998 937.998c-66 0 -119.833 -23.333 -161.5 -70
s-62.5 -103.334 -62.5 -170.001c0 -74.667 20.167 -136.5 60.5 -185.5s94.833 -73.5 163.5 -73.5c67.333 0 120 23.833 158 71.5s57 110.167 57 187.5c0 66.667 -20.5 123.334 -61.5 170.001s-92.167 70 -153.5 70zM661.998 1285l-163 189l-178 -189h-172l298 338h107
l305 -338h-197z" />
    <glyph glyph-name="Gbreve" unicode="&#x11e;" horiz-adv-x="1385" 
d="M1165 1363l-83 -165.001c-100.667 74.667 -199.334 112 -296.001 112c-153.333 0 -274.333 -54 -363 -162s-133 -251 -133 -429c0 -169.333 43.5 -305.666 130.5 -408.999s205.5 -155 355.5 -155c106.667 0 193 32 259 96v343h-203v170h403v-638
c-53.333 -45.333 -127.666 -81.833 -222.999 -109.5s-188 -41.5 -278 -41.5c-202 0 -361.5 68.5 -478.5 205.5s-175.5 319.167 -175.5 546.5c0 226.667 64.167 410.5 192.5 551.5s301.5 211.5 519.5 211.5c152.667 0 277 -42.333 373 -127zM1060 1910
c0 -78.667 -31.334 -152.498 -94.001 -221.498s-146 -103.5 -250 -103.5c-99.333 0 -177.333 31.333 -234 94s-85 139.667 -85 231h141c-2 -40.667 15 -79.334 51 -116.001s78.333 -55 127 -55c56.667 0 104.334 17.167 143.001 51.5s58 74.166 58 119.499h143z" />
    <glyph glyph-name="gbreve" unicode="&#x11f;" horiz-adv-x="1028" 
d="M96 -293l102.998 151.998c110.667 -74 212.667 -111 306 -111c86 0 153.833 14.833 203.5 44.5s74.5 66.5 74.5 110.5c0 86.667 -62.667 130 -188 130c-21.333 0 -60 -5.33301 -116 -16s-99.667 -16 -131 -16c-152 0 -228 57.333 -228 172
c0 35.333 17.833 67.333 53.5 96s79.834 49.334 132.501 62.001c-150.667 70.667 -226 193.334 -226 368.001c0 112 39 205.333 117 280s174.333 112 289 112c105.333 0 187.666 -21.667 246.999 -65l95 114l124 -117l-114 -86c48.667 -63.333 73 -146 73 -248
c0 -108 -33.667 -198.667 -101 -272s-155.666 -115.333 -264.999 -126l-157 -16c-18.667 -2 -43.667 -9.16699 -75 -21.5s-47 -28.5 -47 -48.5c0 -27.333 32.667 -41 98 -41c28.667 0 73.334 5.16699 134.001 15.5s105.667 15.5 135 15.5
c105.333 0 187.5 -25.167 246.5 -75.5s88.5 -120.166 88.5 -209.499c0 -98.667 -44.167 -178.334 -132.5 -239.001s-200.166 -91 -335.499 -91c-69.333 0 -142.333 12.333 -219 37s-138.334 54.667 -185.001 90zM498.998 937.998c-66 0 -119.833 -23.333 -161.5 -70
s-62.5 -103.334 -62.5 -170.001c0 -74.667 20.167 -136.5 60.5 -185.5s94.833 -73.5 163.5 -73.5c67.333 0 120 23.833 158 71.5s57 110.167 57 187.5c0 66.667 -20.5 123.334 -61.5 170.001s-92.167 70 -153.5 70zM809.998 1610
c0 -78.667 -31.334 -152.498 -94.001 -221.498s-146 -103.5 -250 -103.5c-99.333 0 -177.333 31.333 -234 94s-85 139.667 -85 231h141c-2 -40.667 15 -79.334 51 -116.001s78.333 -55 127 -55c56.667 0 104.334 17.167 143.001 51.5s58 74.166 58 119.499h143z" />
    <glyph glyph-name="Gdot" unicode="&#x120;" horiz-adv-x="1385" 
d="M1165 1363l-83 -165.001c-100.667 74.667 -199.334 112 -296.001 112c-153.333 0 -274.333 -54 -363 -162s-133 -251 -133 -429c0 -169.333 43.5 -305.666 130.5 -408.999s205.5 -155 355.5 -155c106.667 0 193 32 259 96v343h-203v170h403v-638
c-53.333 -45.333 -127.666 -81.833 -222.999 -109.5s-188 -41.5 -278 -41.5c-202 0 -361.5 68.5 -478.5 205.5s-175.5 319.167 -175.5 546.5c0 226.667 64.167 410.5 192.5 551.5s301.5 211.5 519.5 211.5c152.667 0 277 -42.333 373 -127zM745 1820
c32.667 0 60.499 -11.501 83.499 -34.501s34.5 -50.5 34.5 -82.5c0 -32.667 -11.5 -60.5 -34.5 -83.5s-50.833 -34.5 -83.5 -34.5c-32 0 -59.5 11.5 -82.5 34.5s-34.5 50.833 -34.5 83.5s11.333 60.334 34 83.001s50.334 34 83.001 34z" />
    <glyph glyph-name="gdot" unicode="&#x121;" horiz-adv-x="1028" 
d="M96 -293l102.998 151.998c110.667 -74 212.667 -111 306 -111c86 0 153.833 14.833 203.5 44.5s74.5 66.5 74.5 110.5c0 86.667 -62.667 130 -188 130c-21.333 0 -60 -5.33301 -116 -16s-99.667 -16 -131 -16c-152 0 -228 57.333 -228 172
c0 35.333 17.833 67.333 53.5 96s79.834 49.334 132.501 62.001c-150.667 70.667 -226 193.334 -226 368.001c0 112 39 205.333 117 280s174.333 112 289 112c105.333 0 187.666 -21.667 246.999 -65l95 114l124 -117l-114 -86c48.667 -63.333 73 -146 73 -248
c0 -108 -33.667 -198.667 -101 -272s-155.666 -115.333 -264.999 -126l-157 -16c-18.667 -2 -43.667 -9.16699 -75 -21.5s-47 -28.5 -47 -48.5c0 -27.333 32.667 -41 98 -41c28.667 0 73.334 5.16699 134.001 15.5s105.667 15.5 135 15.5
c105.333 0 187.5 -25.167 246.5 -75.5s88.5 -120.166 88.5 -209.499c0 -98.667 -44.167 -178.334 -132.5 -239.001s-200.166 -91 -335.499 -91c-69.333 0 -142.333 12.333 -219 37s-138.334 54.667 -185.001 90zM498.998 937.998c-66 0 -119.833 -23.333 -161.5 -70
s-62.5 -103.334 -62.5 -170.001c0 -74.667 20.167 -136.5 60.5 -185.5s94.833 -73.5 163.5 -73.5c67.333 0 120 23.833 158 71.5s57 110.167 57 187.5c0 66.667 -20.5 123.334 -61.5 170.001s-92.167 70 -153.5 70zM485.998 1520c32.667 0 60.499 -11.501 83.499 -34.501
s34.5 -50.5 34.5 -82.5c0 -32.667 -11.5 -60.5 -34.5 -83.5s-50.833 -34.5 -83.5 -34.5c-32 0 -59.5 11.5 -82.5 34.5s-34.5 50.833 -34.5 83.5s11.333 60.334 34 83.001s50.334 34 83.001 34z" />
    <glyph glyph-name="Gcedilla" unicode="&#x122;" horiz-adv-x="1385" 
d="M1165 1363l-83 -165.001c-100.667 74.667 -199.334 112 -296.001 112c-153.333 0 -274.333 -54 -363 -162s-133 -251 -133 -429c0 -169.333 43.5 -305.666 130.5 -408.999s205.5 -155 355.5 -155c106.667 0 193 32 259 96v343h-203v170h403v-638
c-53.333 -45.333 -127.666 -81.833 -222.999 -109.5s-188 -41.5 -278 -41.5c-202 0 -361.5 68.5 -478.5 205.5s-175.5 319.167 -175.5 546.5c0 226.667 64.167 410.5 192.5 551.5s301.5 211.5 519.5 211.5c152.667 0 277 -42.333 373 -127zM607 -455.001l-24 99.001
c52 0 95.333 9 130 27s52 43 52 75c0 49.333 -30 74 -90 74v119c66 0 117.333 -18.667 154 -56s55 -83 55 -137c0 -62.667 -24.333 -111.834 -73 -147.501s-116.667 -53.5 -204 -53.5z" />
    <glyph glyph-name="gcedilla" unicode="&#x123;" horiz-adv-x="1028" 
d="M96 -293l102.998 151.998c110.667 -74 212.667 -111 306 -111c86 0 153.833 14.833 203.5 44.5s74.5 66.5 74.5 110.5c0 86.667 -62.667 130 -188 130c-21.333 0 -60 -5.33301 -116 -16s-99.667 -16 -131 -16c-152 0 -228 57.333 -228 172
c0 35.333 17.833 67.333 53.5 96s79.834 49.334 132.501 62.001c-150.667 70.667 -226 193.334 -226 368.001c0 112 39 205.333 117 280s174.333 112 289 112c105.333 0 187.666 -21.667 246.999 -65l95 114l124 -117l-114 -86c48.667 -63.333 73 -146 73 -248
c0 -108 -33.667 -198.667 -101 -272s-155.666 -115.333 -264.999 -126l-157 -16c-18.667 -2 -43.667 -9.16699 -75 -21.5s-47 -28.5 -47 -48.5c0 -27.333 32.667 -41 98 -41c28.667 0 73.334 5.16699 134.001 15.5s105.667 15.5 135 15.5
c105.333 0 187.5 -25.167 246.5 -75.5s88.5 -120.166 88.5 -209.499c0 -98.667 -44.167 -178.334 -132.5 -239.001s-200.166 -91 -335.499 -91c-69.333 0 -142.333 12.333 -219 37s-138.334 54.667 -185.001 90zM498.998 937.998c-66 0 -119.833 -23.333 -161.5 -70
s-62.5 -103.334 -62.5 -170.001c0 -74.667 20.167 -136.5 60.5 -185.5s94.833 -73.5 163.5 -73.5c67.333 0 120 23.833 158 71.5s57 110.167 57 187.5c0 66.667 -20.5 123.334 -61.5 170.001s-92.167 70 -153.5 70zM531.998 1718l53.999 -57
c-41.333 -40.667 -64.666 -68.167 -69.999 -82.5s-8 -27.5 -8 -39.5c0 -27.333 14 -52.333 42 -75s42 -49.667 42 -81c0 -65.333 -35.333 -98 -106 -98c-72 0 -108 48.333 -108 145c0 112 51.333 208 154 288z" />
    <glyph glyph-name="Hcircumflex" unicode="&#x124;" horiz-adv-x="1340" 
d="M990 0v708h-640v-708h-200v1465h200v-587h640v587h200v-1465h-200zM828 1585l-163 189l-178 -189h-172l298 338h107l305 -338h-197z" />
    <glyph glyph-name="hcircumflex" unicode="&#x125;" horiz-adv-x="1119" 
d="M795 0l0.000976562 673.001c0 80 -19.667 143 -59 189s-94.666 69 -165.999 69c-46 0 -92.167 -13.5 -138.5 -40.5s-81.833 -58.5 -106.5 -94.5v-796h-190v1510h190v-557c25.333 39.333 66.166 72.166 122.499 98.499s114.5 39.5 174.5 39.5
c113.333 0 202.166 -37.333 266.499 -112s96.5 -176.667 96.5 -306v-673h-190zM718.001 1585l-163 189l-178 -189h-172l298 338h107l305 -338h-197z" />
    <glyph glyph-name="Hbar" unicode="&#x126;" horiz-adv-x="1395" 
d="M1373 1101h-152v-1101h-199v696h-651v-696h-199v1101h-152v139h152v225h199v-225h651v225h199v-225h152v-139zM1022 866v235h-651v-235h651z" />
    <glyph glyph-name="hbar" unicode="&#x127;" horiz-adv-x="1122" 
d="M993 0l-192 0.000976562v623c0 167.333 -73.667 251 -221 251c-46.667 0 -92.667 -13.333 -138 -40c-42 -24.667 -78 -57.667 -108 -99v-735h-193v1190h-145v139h145v181h193v-181h373v-139h-373v-293c32.667 43.333 73.667 76.666 123 99.999
c55.333 26 113.333 39 174 39c113.333 0 202 -36.667 266 -110s96 -174.333 96 -303v-623z" />
    <glyph glyph-name="Itilde" unicode="&#x128;" horiz-adv-x="570" 
d="M185 0v1465h200v-1465h-200zM603 1792c-35.333 -138 -99.332 -207 -191.999 -207c-42 0 -88.167 12.833 -138.5 38.5s-85.833 38.5 -106.5 38.5c-47.333 0 -83.333 -25.667 -108 -77h-91c9.33301 56 30.833 104.5 64.5 145.5s73.5 61.5 119.5 61.5
c54.667 0 105.167 -12.833 151.5 -38.5s81.166 -38.5 104.499 -38.5c54 0 90 25.667 108 77h88z" />
    <glyph glyph-name="itilde" unicode="&#x129;" horiz-adv-x="584" 
d="M227 0v911h-147v160h340v-1071h-193zM610 1492c-35.333 -138 -99.332 -207 -191.999 -207c-42 0 -88.167 12.833 -138.5 38.5s-85.833 38.5 -106.5 38.5c-47.333 0 -83.333 -25.667 -108 -77h-91c9.33301 56 30.833 104.5 64.5 145.5s73.5 61.5 119.5 61.5
c54.667 0 105.167 -12.833 151.5 -38.5s81.166 -38.5 104.499 -38.5c54 0 90 25.667 108 77h88z" />
    <glyph glyph-name="Imacron" unicode="&#x12a;" horiz-adv-x="570" 
d="M185 0v1465h200v-1465h-200zM654 1726v-141h-738v141h738z" />
    <glyph glyph-name="imacron" unicode="&#x12b;" horiz-adv-x="584" 
d="M227 0v911h-147v160h340v-1071h-193zM661 1426v-141h-738v141h738z" />
    <glyph glyph-name="Ibreve" unicode="&#x12c;" horiz-adv-x="570" 
d="M185 0v1465h200v-1465h-200zM617 1910c0 -78.667 -31.334 -152.498 -94.001 -221.498s-146 -103.5 -250 -103.5c-99.333 0 -177.333 31.333 -234 94s-85 139.667 -85 231h141c-2 -40.667 15 -79.334 51 -116.001s78.333 -55 127 -55
c56.667 0 104.334 17.167 143.001 51.5s58 74.166 58 119.499h143z" />
    <glyph glyph-name="ibreve" unicode="&#x12d;" horiz-adv-x="584" 
d="M227 0v911h-147v160h340v-1071h-193zM626 1610c0 -78.667 -31.334 -152.498 -94.001 -221.498s-146 -103.5 -250 -103.5c-99.333 0 -177.333 31.333 -234 94s-85 139.667 -85 231h141c-2 -40.667 15 -79.334 51 -116.001s78.333 -55 127 -55
c56.667 0 104.334 17.167 143.001 51.5s58 74.166 58 119.499h143z" />
    <glyph glyph-name="Iogonek" unicode="&#x12e;" horiz-adv-x="570" 
d="M573 -338c-64 -23.333 -123.332 -34.999 -177.999 -34.999c-76.667 0 -140.334 22 -191.001 66c-54 46 -81 106.667 -81 182c0 64 20.667 121.667 62 173v1417h200v-1465c-36.667 -18 -61 -34.667 -73 -50c-16 -18.667 -24 -46.334 -24 -83.001c0 -62.667 37 -94 111 -94
c36 0 71.667 10.333 107 31z" />
    <glyph glyph-name="iogonek" unicode="&#x12f;" horiz-adv-x="584" 
d="M449 1360c0 -34 -11.999 -62.333 -35.999 -85s-51 -34 -81 -34c-31.333 0 -59 11.333 -83 34s-36 51 -36 85c0 31.333 11.667 58.666 35 81.999s51.333 35 84 35c31.333 0 58.666 -11.667 81.999 -35s35 -50.666 35 -81.999zM604.001 -338
c-63.333 -23.333 -122.667 -34.999 -178 -34.999c-76 0 -139.667 22 -191 66c-53.333 46 -80.333 106.667 -81 182c0.666992 68.667 25 130 73 184v852h-147v160h337v-1071c-36.667 -18 -61.334 -34.667 -74.001 -50c-15.333 -18.667 -23.333 -46.334 -24 -83.001
c0.666992 -62.667 37.667 -94 111 -94c36.667 0 72.334 10.333 107.001 31z" />
    <glyph glyph-name="Idotaccent" unicode="&#x130;" horiz-adv-x="570" 
d="M185 0v1465h200v-1465h-200zM283 1820c32.667 0 60.499 -11.501 83.499 -34.501s34.5 -50.5 34.5 -82.5c0 -32.667 -11.5 -60.5 -34.5 -83.5s-50.833 -34.5 -83.5 -34.5c-32 0 -59.5 11.5 -82.5 34.5s-34.5 50.833 -34.5 83.5s11.333 60.334 34 83.001
s50.334 34 83.001 34z" />
    <glyph glyph-name="dotlessi" unicode="&#x131;" horiz-adv-x="584" 
d="M227 0v911h-147v160h340v-1071h-193z" />
    <glyph glyph-name="IJ" unicode="&#x132;" horiz-adv-x="1489" 
d="M185 0v1465h200v-1465h-200zM562 293h175.001c16 -88.667 69 -133 159 -133c89.333 0 152.166 19.167 188.499 57.5s54.5 145.5 54.5 321.5v926h200v-918c0 -200 -32.333 -344.5 -97 -433.5s-179.667 -133.5 -345 -133.5c-95.333 0 -173.5 28.333 -234.5 85
s-94.5 132.667 -100.5 228z" />
    <glyph glyph-name="ij" unicode="&#x133;" horiz-adv-x="1233" 
d="M331 1476c32.667 0 60.499 -11.501 83.499 -34.501s34.5 -50.5 34.5 -82.5c0 -32.667 -11.5 -60.5 -34.5 -83.5s-50.833 -34.5 -83.5 -34.5c-32 0 -59.5 11.5 -82.5 34.5s-34.5 50.833 -34.5 83.5s11.333 60.334 34 83.001s50.334 34 83.001 34zM226.999 -0.000976562
v911h-147v160h337v-1071h-190zM909.999 1476c32.667 0 60.5 -11.501 83.5 -34.501s34.5 -50.5 34.5 -82.5c0 -32.667 -11.5 -60.5 -34.5 -83.5s-50.833 -34.5 -83.5 -34.5s-60.334 11.5 -83.001 34.5s-34 50.833 -34 83.5s11.333 60.334 34 83.001s50.334 34 83.001 34z
M499.999 -420.002l0.000976562 169.998c130.667 0 220.167 19.833 268.5 59.5s72.5 104.834 72.5 195.501v906h-213v160h403v-1062c0 -147.333 -43.333 -255.666 -130 -324.999s-220.334 -104 -401.001 -104z" />
    <glyph glyph-name="Jcircumflex" unicode="&#x134;" horiz-adv-x="976" 
d="M49 293h175.001c16 -88.667 69 -133 159 -133c89.333 0 152.166 19.167 188.499 57.5s54.5 145.5 54.5 321.5v926h200v-918c0 -200 -32.333 -344.5 -97 -433.5s-179.667 -133.5 -345 -133.5c-95.333 0 -173.5 28.333 -234.5 85s-94.5 132.667 -100.5 228zM789.001 1585
l-163 189l-178 -189h-172l298 338h107l305 -338h-197z" />
    <glyph glyph-name="jcircumflex" unicode="&#x135;" horiz-adv-x="751" 
d="M18 -420l0.000976562 169.998c130.667 0 220.167 19.833 268.5 59.5s72.5 104.834 72.5 195.501v906h-213v160h403v-1062c0 -147.333 -43.333 -255.666 -130 -324.999s-220.334 -104 -401.001 -104zM534.001 1285l-163 189l-178 -189h-172l298 338h107l305 -338h-197z
" />
    <glyph glyph-name="Kcedilla" unicode="&#x136;" horiz-adv-x="1179" 
d="M958 0l-413 674l-195 -277v-397h-200v1465h200v-797l544 797h223l-438 -635l500 -830h-221zM459 -455l-24 99.001c52 0 95.333 9 130 27s52 43 52 75c0 49.333 -30 74 -90 74v119c66 0 117.333 -18.667 154 -56s55 -83 55 -137c0 -62.667 -24.333 -111.834 -73 -147.501
s-116.667 -53.5 -204 -53.5z" />
    <glyph glyph-name="kcedilla" unicode="&#x137;" horiz-adv-x="1033" 
d="M827 0l-336 536l-166 -171v-365h-190v1510h190v-937l410 498h222l-343 -407l419 -664h-206zM404 -455l-24 99.001c52 0 95.333 9 130 27s52 43 52 75c0 49.333 -30 74 -90 74v119c66 0 117.333 -18.667 154 -56s55 -83 55 -137c0 -62.667 -24.333 -111.834 -73 -147.501
s-116.667 -53.5 -204 -53.5z" />
    <glyph glyph-name="kgreenlandic" unicode="&#x138;" horiz-adv-x="1116" 
d="M1075 0h-248l-331 485l-160 -178v-307h-191v1071h191v-530l442 530h242l-399 -450z" />
    <glyph glyph-name="Lacute" unicode="&#x139;" horiz-adv-x="1037" 
d="M150 0v1465h200v-1285h662v-180h-862zM604 1918l-226 -333h-140l169 333h197z" />
    <glyph glyph-name="lacute" unicode="&#x13a;" horiz-adv-x="604" 
d="M150 303v1207h190v-1175c0 -57.333 16.5 -102.5 49.5 -135.5s76.167 -49.5 129.5 -49.5v-170c-246 0 -369 107.667 -369 323zM544 1918l-226 -333h-140l169 333h197z" />
    <glyph glyph-name="Lcedilla" unicode="&#x13b;" horiz-adv-x="1037" 
d="M150 0v1465h200v-1285h662v-180h-862zM423 -455l-24 99.001c52 0 95.333 9 130 27s52 43 52 75c0 49.333 -30 74 -90 74v119c66 0 117.333 -18.667 154 -56s55 -83 55 -137c0 -62.667 -24.333 -111.834 -73 -147.501s-116.667 -53.5 -204 -53.5z" />
    <glyph glyph-name="lcedilla" unicode="&#x13c;" horiz-adv-x="604" 
d="M150 303v1207h190v-1175c0 -57.333 16.5 -102.5 49.5 -135.5s76.167 -49.5 129.5 -49.5v-170c-246 0 -369 107.667 -369 323zM242 -455l-24 99.001c52 0 95.333 9 130 27s52 43 52 75c0 49.333 -30 74 -90 74v119c66 0 117.333 -18.667 154 -56s55 -83 55 -137
c0 -62.667 -24.333 -111.834 -73 -147.501s-116.667 -53.5 -204 -53.5z" />
    <glyph glyph-name="Lcaron" unicode="&#x13d;" horiz-adv-x="1037" 
d="M150 0v1465h200v-1285h662v-180h-862zM586 1064l-47 63c48 38.667 75.167 65.5 81.5 80.5s9.5 29.833 9.5 44.5c0 22 -11.5 44.167 -34.5 66.5s-34.5 45.5 -34.5 69.5c0 68.667 34 103 102 103c72 0 108 -41.333 108 -124c0 -125.333 -61.667 -226.333 -185 -303z" />
    <glyph glyph-name="lcaron" unicode="&#x13e;" horiz-adv-x="604" 
d="M150 303v1207h190v-1175c0 -57.333 16.5 -102.5 49.5 -135.5s76.167 -49.5 129.5 -49.5v-170c-246 0 -369 107.667 -369 323zM526 1083l-47 63c48 38.667 75.167 65.5 81.5 80.5s9.5 29.833 9.5 44.5c0 22 -11.5 44.167 -34.5 66.5s-34.5 45.5 -34.5 69.5
c0 68.667 34 103 102 103c72 0 108 -41.333 108 -124c0 -125.333 -61.667 -226.333 -185 -303z" />
    <glyph glyph-name="Ldot" unicode="&#x13f;" horiz-adv-x="1037" 
d="M150 0v1465h200v-1285h662v-180h-862zM695 850c32.667 0 60.499 -11.501 83.499 -34.501s34.5 -50.5 34.5 -82.5c0 -32.667 -11.5 -60.5 -34.5 -83.5s-50.833 -34.5 -83.5 -34.5c-32 0 -59.5 11.5 -82.5 34.5s-34.5 50.833 -34.5 83.5s11.333 60.334 34 83.001
s50.334 34 83.001 34z" />
    <glyph glyph-name="ldot" unicode="&#x140;" horiz-adv-x="675" 
d="M150 303v1207h190v-1175c0 -57.333 16.5 -102.5 49.5 -135.5s76.167 -49.5 129.5 -49.5v-170c-246 0 -369 107.667 -369 323zM635 890c32.667 0 60.499 -11.501 83.499 -34.501s34.5 -50.5 34.5 -82.5c0 -32.667 -11.5 -60.5 -34.5 -83.5s-50.833 -34.5 -83.5 -34.5
c-32 0 -59.5 11.5 -82.5 34.5s-34.5 50.833 -34.5 83.5s11.333 60.334 34 83.001s50.334 34 83.001 34z" />
    <glyph glyph-name="Lslash" unicode="&#x141;" horiz-adv-x="1037" 
d="M485 1045v-131l-135 -95v-639h662v-180h-862v679l-152 -106v144l152 102v646h200v-511z" />
    <glyph glyph-name="lslash" unicode="&#x142;" horiz-adv-x="610" 
d="M156 303v382l-107 -74v144l107 72v683h190v-555l139 90v-131l-139 -97v-482c0 -57.333 16.5 -102.5 49.5 -135.5s76.167 -49.5 129.5 -49.5v-170c-246 0 -369 107.667 -369 323z" />
    <glyph glyph-name="Nacute" unicode="&#x143;" horiz-adv-x="1307" 
d="M1097 -20l-757 1071v-1051h-190v1465h80l737 -1013v1013h190v-1485h-60zM864 1918l-226 -333h-140l169 333h197z" />
    <glyph glyph-name="nacute" unicode="&#x144;" horiz-adv-x="1119" 
d="M794 0l-0.00195312 623c0 114 -17.167 193.833 -51.5 239.5s-91.833 68.5 -172.5 68.5c-43.333 0 -88.666 -13 -135.999 -39s-83.666 -58 -108.999 -96v-796h-190v1071h130l60 -138c62.667 105.333 165 158 307 158c234.667 0 352 -142.667 352 -428v-663h-190z
M793.998 1618l-226 -333h-140l169 333h197z" />
    <glyph glyph-name="Ncedilla" unicode="&#x145;" horiz-adv-x="1307" 
d="M1097 -20l-757 1071v-1051h-190v1465h80l737 -1013v1013h190v-1485h-60zM495 -455l-24 99.001c52 0 95.333 9 130 27s52 43 52 75c0 49.333 -30 74 -90 74v119c66 0 117.333 -18.667 154 -56s55 -83 55 -137c0 -62.667 -24.333 -111.834 -73 -147.501
s-116.667 -53.5 -204 -53.5z" />
    <glyph glyph-name="ncedilla" unicode="&#x146;" horiz-adv-x="1119" 
d="M794 0l-0.00195312 623c0 114 -17.167 193.833 -51.5 239.5s-91.833 68.5 -172.5 68.5c-43.333 0 -88.666 -13 -135.999 -39s-83.666 -58 -108.999 -96v-796h-190v1071h130l60 -138c62.667 105.333 165 158 307 158c234.667 0 352 -142.667 352 -428v-663h-190z
M401.998 -455l-24 99.001c52 0 95.333 9 130 27s52 43 52 75c0 49.333 -30 74 -90 74v119c66 0 117.333 -18.667 154 -56s55 -83 55 -137c0 -62.667 -24.333 -111.834 -73 -147.501s-116.667 -53.5 -204 -53.5z" />
    <glyph glyph-name="Ncaron" unicode="&#x147;" horiz-adv-x="1307" 
d="M1097 -20l-757 1071v-1051h-190v1465h80l737 -1013v1013h190v-1485h-60zM959 1919l-305 -334h-107l-298 338h172l178 -192l163 188h197z" />
    <glyph glyph-name="ncaron" unicode="&#x148;" horiz-adv-x="1119" 
d="M794 0l-0.00195312 623c0 114 -17.167 193.833 -51.5 239.5s-91.833 68.5 -172.5 68.5c-43.333 0 -88.666 -13 -135.999 -39s-83.666 -58 -108.999 -96v-796h-190v1071h130l60 -138c62.667 105.333 165 158 307 158c234.667 0 352 -142.667 352 -428v-663h-190z
M928.998 1619l-305 -334h-107l-298 338h172l178 -192l163 188h197z" />
    <glyph glyph-name="napostrophe" unicode="&#x149;" horiz-adv-x="1300" 
d="M67 1083l-47 63c48 38.667 75.167 65.5 81.5 80.5s9.5 29.833 9.5 44.5c0 22 -11.5 44.167 -34.5 66.5s-34.5 45.5 -34.5 69.5c0 68.667 34 103 102 103c72 0 108 -41.333 108 -124c0 -125.333 -61.667 -226.333 -185 -303zM975 0l-0.00195312 623
c0 114 -17.167 193.833 -51.5 239.5s-91.833 68.5 -172.5 68.5c-43.333 0 -88.666 -13 -135.999 -39s-83.666 -58 -108.999 -96v-796h-190v1071h130l60 -138c62.667 105.333 165 158 307 158c234.667 0 352 -142.667 352 -428v-663h-190z" />
    <glyph glyph-name="Eng" unicode="&#x14a;" horiz-adv-x="1337" 
d="M1194 457c0 -172 -28.667 -293.668 -86 -365.001c-60 -74.667 -146 -112 -258 -112c-105.333 0 -189 25.667 -251 77l82 146c48 -34 95 -51 141 -51c42 0 75.667 8.66699 101 26c23.333 16 40.333 40.667 51 74c13.333 40.667 20 111.667 20 213v393
c0 180.667 -28.333 301.334 -85 362.001s-140 91 -250 91c-112 0 -215 -57.333 -309 -172v-1139h-200v1465h118l82 -134c96 106.667 222.333 160 379 160c310 0 465 -194.667 465 -584v-450z" />
    <glyph glyph-name="eng" unicode="&#x14b;" horiz-adv-x="1119" 
d="M984 0c0 -138.667 -39.998 -243.332 -119.998 -313.999s-187.333 -106 -322 -106v170c85.333 0 149.333 20.333 192 61c40 38.667 60 101.667 60 189v622c0 113.333 -17.333 193.166 -52 239.499s-92.667 69.5 -174 69.5c-44 0 -89.333 -13 -136 -39
s-82.334 -57.667 -107.001 -95v-797h-190v1071h130l60 -137c61.333 104.667 163.666 157 306.999 157c234.667 0 352 -142.667 352 -428v-663z" />
    <glyph glyph-name="Omacron" unicode="&#x14c;" horiz-adv-x="1380" 
d="M80 745c0 212 53.1689 389.333 159.502 532s249.833 214 430.5 214c203.333 0 359.166 -65.667 467.499 -197s162.5 -314.333 162.5 -549c0 -240.667 -54.333 -429.167 -163 -565.5s-264.334 -204.5 -467.001 -204.5c-184.667 0 -329.167 72 -433.5 216
s-156.5 328.667 -156.5 554zM290.002 745c0 -168 33.166 -308.333 99.499 -421s159.833 -169 280.5 -169c136.667 0 240.834 51.667 312.501 155s107.5 248.333 107.5 435c0 377.333 -140 566 -420 566c-124 0 -218.333 -50.667 -283 -152s-97 -239.333 -97 -414zM1039 1726
v-141h-738v141h738z" />
    <glyph glyph-name="omacron" unicode="&#x14d;" horiz-adv-x="1099" 
d="M65 538c0 165.333 44.5 298.833 133.5 400.5s206.167 152.5 351.5 152.5c153.333 0 272.333 -48.833 357 -146.5s127 -233.167 127 -406.5c0 -172.667 -43.333 -308.834 -130 -408.501s-204.667 -149.5 -354 -149.5c-152.667 0 -271.667 50.333 -357 151
s-128 236.334 -128 407.001zM265 538c0 -268.667 95.001 -403 285.001 -403c88.667 0 158.167 36 208.5 108s75.5 170.333 75.5 295c0 265.333 -94.667 398 -284 398c-86.667 0 -155.834 -35.333 -207.501 -106s-77.5 -168 -77.5 -292zM919.001 1426v-141h-738v141h738z" />
    <glyph glyph-name="Obreve" unicode="&#x14e;" horiz-adv-x="1380" 
d="M80 745c0 212 53.1689 389.333 159.502 532s249.833 214 430.5 214c203.333 0 359.166 -65.667 467.499 -197s162.5 -314.333 162.5 -549c0 -240.667 -54.333 -429.167 -163 -565.5s-264.334 -204.5 -467.001 -204.5c-184.667 0 -329.167 72 -433.5 216
s-156.5 328.667 -156.5 554zM290.002 745c0 -168 33.166 -308.333 99.499 -421s159.833 -169 280.5 -169c136.667 0 240.834 51.667 312.501 155s107.5 248.333 107.5 435c0 377.333 -140 566 -420 566c-124 0 -218.333 -50.667 -283 -152s-97 -239.333 -97 -414zM1014 1910
c0 -78.667 -31.334 -152.498 -94.001 -221.498s-146 -103.5 -250 -103.5c-99.333 0 -177.333 31.333 -234 94s-85 139.667 -85 231h141c-2 -40.667 15 -79.334 51 -116.001s78.333 -55 127 -55c56.667 0 104.334 17.167 143.001 51.5s58 74.166 58 119.499h143z" />
    <glyph glyph-name="obreve" unicode="&#x14f;" horiz-adv-x="1099" 
d="M65 538c0 165.333 44.5 298.833 133.5 400.5s206.167 152.5 351.5 152.5c153.333 0 272.333 -48.833 357 -146.5s127 -233.167 127 -406.5c0 -172.667 -43.333 -308.834 -130 -408.501s-204.667 -149.5 -354 -149.5c-152.667 0 -271.667 50.333 -357 151
s-128 236.334 -128 407.001zM265 538c0 -268.667 95.001 -403 285.001 -403c88.667 0 158.167 36 208.5 108s75.5 170.333 75.5 295c0 265.333 -94.667 398 -284 398c-86.667 0 -155.834 -35.333 -207.501 -106s-77.5 -168 -77.5 -292zM894.001 1610
c0 -78.667 -31.334 -152.498 -94.001 -221.498s-146 -103.5 -250 -103.5c-99.333 0 -177.333 31.333 -234 94s-85 139.667 -85 231h141c-2 -40.667 15 -79.334 51 -116.001s78.333 -55 127 -55c56.667 0 104.334 17.167 143.001 51.5s58 74.166 58 119.499h143z" />
    <glyph glyph-name="Odblacute" unicode="&#x150;" horiz-adv-x="1380" 
d="M80 745c0 212 53.1689 389.333 159.502 532s249.833 214 430.5 214c203.333 0 359.166 -65.667 467.499 -197s162.5 -314.333 162.5 -549c0 -240.667 -54.333 -429.167 -163 -565.5s-264.334 -204.5 -467.001 -204.5c-184.667 0 -329.167 72 -433.5 216
s-156.5 328.667 -156.5 554zM290.002 745c0 -168 33.166 -308.333 99.499 -421s159.833 -169 280.5 -169c136.667 0 240.834 51.667 312.501 155s107.5 248.333 107.5 435c0 377.333 -140 566 -420 566c-124 0 -218.333 -50.667 -283 -152s-97 -239.333 -97 -414z
M750.001 1868l-199 -283h-140l142 283h197zM1120 1868l-199 -283h-140l142 283h197z" />
    <glyph glyph-name="odblacute" unicode="&#x151;" horiz-adv-x="1099" 
d="M65 538c0 165.333 44.5 298.833 133.5 400.5s206.167 152.5 351.5 152.5c153.333 0 272.333 -48.833 357 -146.5s127 -233.167 127 -406.5c0 -172.667 -43.333 -308.834 -130 -408.501s-204.667 -149.5 -354 -149.5c-152.667 0 -271.667 50.333 -357 151
s-128 236.334 -128 407.001zM265 538c0 -268.667 95.001 -403 285.001 -403c88.667 0 158.167 36 208.5 108s75.5 170.333 75.5 295c0 265.333 -94.667 398 -284 398c-86.667 0 -155.834 -35.333 -207.501 -106s-77.5 -168 -77.5 -292zM620.001 1568l-199 -283h-140l142 283
h197zM990.001 1568l-199 -283h-140l142 283h197z" />
    <glyph glyph-name="OE" unicode="&#x152;" horiz-adv-x="2034" 
d="M1287 1285l-0.000976562 -407h484v-170h-484v-528h664v-180h-864v138c-107.333 -108.667 -250.666 -163 -429.999 -163c-184.667 0 -329.167 72 -433.5 216s-156.5 328.667 -156.5 554c0 212 53.167 389.333 159.5 532s249.833 214 430.5 214c180 0 323.333 -52 430 -156
v130h875v-180h-675zM276.999 745c0 -168 33.166 -308.333 99.499 -421s159.833 -169 280.5 -169c136.667 0 240.834 51.667 312.501 155s107.5 248.333 107.5 435c0 377.333 -140 566 -420 566c-124 0 -218.333 -50.667 -283 -152s-97 -239.333 -97 -414z" />
    <glyph glyph-name="oe" unicode="&#x153;" horiz-adv-x="1893" 
d="M942 892c99.333 132.667 229.001 198.999 389.001 198.999c148 0 265.833 -44.333 353.5 -133s131.5 -203.667 131.5 -345c0 -30.667 -5 -62.667 -15 -96h-762c0 -114 29.667 -205.333 89 -274s138.666 -103 237.999 -103c112 0 203.333 33.667 274 101l80 -152
c-82.667 -72.667 -213 -109 -391 -109c-169.333 0 -301.333 64.333 -396 193c-86 -128.667 -215 -193 -387 -193c-152.667 0 -271.667 50.333 -357 151s-128 236.334 -128 407.001c0 165.333 44.5 298.833 133.5 400.5s206.167 152.5 351.5 152.5
c180.667 0 312.667 -66.333 396 -199zM1039 654.999l597.999 -0.000976562c0 82 -28.167 148.5 -84.5 199.5s-130.5 76.5 -222.5 76.5c-69.333 0 -135.166 -28.667 -197.499 -86s-93.5 -120.666 -93.5 -189.999zM261 537.998c0 -258.667 94.999 -388 284.999 -388
c92 0 162.333 34.833 211 104.5s73 164.167 73 283.5c0 255.333 -94.667 383 -284 383c-89.333 0 -159.166 -33.333 -209.499 -100s-75.5 -161 -75.5 -283z" />
    <glyph glyph-name="Racute" unicode="&#x154;" horiz-adv-x="1192" 
d="M963 0l-390.998 629c-44.667 0 -115.334 3.33301 -212.001 10v-639h-200v1465c7.33301 0 59.166 2.5 155.499 7.5s166.5 7.5 210.5 7.5c352 0 528 -140 528 -420c0 -92 -28.333 -174.833 -85 -248.5s-124 -119.5 -202 -137.5l425 -674h-229zM360.002 1285
l0.000976562 -476c48 -6.66699 94.667 -10 140 -10c120 0 207.333 19.333 262 58s82 107.667 82 207c0 82 -29.333 141 -88 177s-151.334 54 -278.001 54c-20 0 -59.333 -3.33301 -118 -10zM744.003 1918l-226 -333h-140l169 333h197z" />
    <glyph glyph-name="racute" unicode="&#x155;" horiz-adv-x="796" 
d="M717 888c-41.333 28.667 -83.001 43 -125.001 43c-67.333 0 -126.166 -31 -176.499 -93s-75.5 -136.667 -75.5 -224v-614h-190v1071h190v-171c69.333 127.333 172.333 191 309 191c34 0 83 -6 147 -18zM693.999 1618l-226 -333h-140l169 333h197z" />
    <glyph glyph-name="Rcedilla" unicode="&#x156;" horiz-adv-x="1192" 
d="M963 0l-390.998 629c-44.667 0 -115.334 3.33301 -212.001 10v-639h-200v1465c7.33301 0 59.166 2.5 155.499 7.5s166.5 7.5 210.5 7.5c352 0 528 -140 528 -420c0 -92 -28.333 -174.833 -85 -248.5s-124 -119.5 -202 -137.5l425 -674h-229zM360.002 1285
l0.000976562 -476c48 -6.66699 94.667 -10 140 -10c120 0 207.333 19.333 262 58s82 107.667 82 207c0 82 -29.333 141 -88 177s-151.334 54 -278.001 54c-20 0 -59.333 -3.33301 -118 -10zM455.003 -455l-24 99.001c52 0 95.333 9 130 27s52 43 52 75
c0 49.333 -30 74 -90 74v119c66 0 117.333 -18.667 154 -56s55 -83 55 -137c0 -62.667 -24.333 -111.834 -73 -147.501s-116.667 -53.5 -204 -53.5z" />
    <glyph glyph-name="rcedilla" unicode="&#x157;" horiz-adv-x="796" 
d="M717 888c-41.333 28.667 -83.001 43 -125.001 43c-67.333 0 -126.166 -31 -176.499 -93s-75.5 -136.667 -75.5 -224v-614h-190v1071h190v-171c69.333 127.333 172.333 191 309 191c34 0 83 -6 147 -18zM154.999 -455l-24 99.001c52 0 95.333 9 130 27s52 43 52 75
c0 49.333 -30 74 -90 74v119c66 0 117.333 -18.667 154 -56s55 -83 55 -137c0 -62.667 -24.333 -111.834 -73 -147.501s-116.667 -53.5 -204 -53.5z" />
    <glyph glyph-name="Rcaron" unicode="&#x158;" horiz-adv-x="1192" 
d="M963 0l-390.998 629c-44.667 0 -115.334 3.33301 -212.001 10v-639h-200v1465c7.33301 0 59.166 2.5 155.499 7.5s166.5 7.5 210.5 7.5c352 0 528 -140 528 -420c0 -92 -28.333 -174.833 -85 -248.5s-124 -119.5 -202 -137.5l425 -674h-229zM360.002 1285
l0.000976562 -476c48 -6.66699 94.667 -10 140 -10c120 0 207.333 19.333 262 58s82 107.667 82 207c0 82 -29.333 141 -88 177s-151.334 54 -278.001 54c-20 0 -59.333 -3.33301 -118 -10zM920.003 1919l-305 -334h-107l-298 338h172l178 -192l163 188h197z" />
    <glyph glyph-name="rcaron" unicode="&#x159;" horiz-adv-x="796" 
d="M717 888c-41.333 28.667 -83.001 43 -125.001 43c-67.333 0 -126.166 -31 -176.499 -93s-75.5 -136.667 -75.5 -224v-614h-190v1071h190v-171c69.333 127.333 172.333 191 309 191c34 0 83 -6 147 -18zM808.999 1619l-305 -334h-107l-298 338h172l178 -192l163 188h197z
" />
    <glyph glyph-name="Sacute" unicode="&#x15a;" horiz-adv-x="985" 
d="M84 67l73.0029 184.002c37.333 -27.333 83.833 -50.166 139.5 -68.499s105.5 -27.5 149.5 -27.5c78 0 140.667 21.333 188 64s71 97 71 163c0 49.333 -13.167 95.166 -39.5 137.499s-92.5 88.5 -198.5 138.5l-118 55c-100 46.667 -169.833 102 -209.5 166
s-59.5 141 -59.5 231c0 109.333 38.667 200 116 272s176.666 108 297.999 108c162 0 274.667 -26.333 338 -79l-59 -174c-26.667 19.333 -67.334 38 -122.001 56s-105.334 27 -152.001 27c-68 0 -121.5 -19.333 -160.5 -58s-58.5 -88.334 -58.5 -149.001
c0 -37.333 7 -71.333 21 -102s33.5 -56.334 58.5 -77.001s76.167 -49.667 153.5 -87l120 -57c100 -47.333 170.167 -103.833 210.5 -169.5s60.5 -149.167 60.5 -250.5c0 -110 -44.167 -203.333 -132.5 -280s-206.5 -115 -354.5 -115c-130 0 -241 30.667 -333 92z
M760.003 1918l-226 -333h-140l169 333h197z" />
    <glyph glyph-name="sacute" unicode="&#x15b;" horiz-adv-x="829" 
d="M65 64l66.9971 179.999c106 -69.333 191.333 -104 256 -104c117.333 0 176 49.333 176 148c0 70.667 -56.667 131.334 -170 182.001c-87.333 40 -146.166 70.333 -176.499 91s-56.666 44.167 -78.999 70.5s-39 54.333 -50 84s-16.5 61.5 -16.5 95.5
c0 88 32 156.667 96 206s147.667 74 251 74c78 0 176.333 -24.667 295 -74l-54 -176c-75.333 60 -151 90 -227 90c-45.333 0 -83.5 -10.667 -114.5 -32s-46.5 -48.333 -46.5 -81c0 -68.667 39 -120.667 117 -156l136 -62c83.333 -38 144 -81.333 182 -130
s57 -109.667 57 -183c0 -96 -33.667 -171.167 -101 -225.5s-160.666 -81.5 -279.999 -81.5c-112.667 0 -218.667 28 -318 84zM653.997 1618l-226 -333h-140l169 333h197z" />
    <glyph glyph-name="Scircumflex" unicode="&#x15c;" horiz-adv-x="985" 
d="M84 67l73.0029 184.002c37.333 -27.333 83.833 -50.166 139.5 -68.499s105.5 -27.5 149.5 -27.5c78 0 140.667 21.333 188 64s71 97 71 163c0 49.333 -13.167 95.166 -39.5 137.499s-92.5 88.5 -198.5 138.5l-118 55c-100 46.667 -169.833 102 -209.5 166
s-59.5 141 -59.5 231c0 109.333 38.667 200 116 272s176.666 108 297.999 108c162 0 274.667 -26.333 338 -79l-59 -174c-26.667 19.333 -67.334 38 -122.001 56s-105.334 27 -152.001 27c-68 0 -121.5 -19.333 -160.5 -58s-58.5 -88.334 -58.5 -149.001
c0 -37.333 7 -71.333 21 -102s33.5 -56.334 58.5 -77.001s76.167 -49.667 153.5 -87l120 -57c100 -47.333 170.167 -103.833 210.5 -169.5s60.5 -149.167 60.5 -250.5c0 -110 -44.167 -203.333 -132.5 -280s-206.5 -115 -354.5 -115c-130 0 -241 30.667 -333 92z
M642.003 1585l-163 189l-178 -189h-172l298 338h107l305 -338h-197z" />
    <glyph glyph-name="scircumflex" unicode="&#x15d;" horiz-adv-x="829" 
d="M65 64l66.9971 179.999c106 -69.333 191.333 -104 256 -104c117.333 0 176 49.333 176 148c0 70.667 -56.667 131.334 -170 182.001c-87.333 40 -146.166 70.333 -176.499 91s-56.666 44.167 -78.999 70.5s-39 54.333 -50 84s-16.5 61.5 -16.5 95.5
c0 88 32 156.667 96 206s147.667 74 251 74c78 0 176.333 -24.667 295 -74l-54 -176c-75.333 60 -151 90 -227 90c-45.333 0 -83.5 -10.667 -114.5 -32s-46.5 -48.333 -46.5 -81c0 -68.667 39 -120.667 117 -156l136 -62c83.333 -38 144 -81.333 182 -130
s57 -109.667 57 -183c0 -96 -33.667 -171.167 -101 -225.5s-160.666 -81.5 -279.999 -81.5c-112.667 0 -218.667 28 -318 84zM550.997 1285l-163 189l-178 -189h-172l298 338h107l305 -338h-197z" />
    <glyph glyph-name="Scedilla" unicode="&#x15e;" horiz-adv-x="985" 
d="M84 67l73.0029 184.002c37.333 -27.333 83.833 -50.166 139.5 -68.499s105.5 -27.5 149.5 -27.5c78 0 140.667 21.333 188 64s71 97 71 163c0 49.333 -13.167 95.166 -39.5 137.499s-92.5 88.5 -198.5 138.5l-118 55c-100 46.667 -169.833 102 -209.5 166
s-59.5 141 -59.5 231c0 109.333 38.667 200 116 272s176.666 108 297.999 108c162 0 274.667 -26.333 338 -79l-59 -174c-26.667 19.333 -67.334 38 -122.001 56s-105.334 27 -152.001 27c-68 0 -121.5 -19.333 -160.5 -58s-58.5 -88.334 -58.5 -149.001
c0 -37.333 7 -71.333 21 -102s33.5 -56.334 58.5 -77.001s76.167 -49.667 153.5 -87l120 -57c100 -47.333 170.167 -103.833 210.5 -169.5s60.5 -149.167 60.5 -250.5c0 -110 -44.167 -203.333 -132.5 -280s-206.5 -115 -354.5 -115c-130 0 -241 30.667 -333 92z
M305.003 -454.998l-24 99.001c52 0 95.333 9 130 27s52 43 52 75c0 49.333 -30 74 -90 74v119c66 0 117.333 -18.667 154 -56s55 -83 55 -137c0 -62.667 -24.333 -111.834 -73 -147.501s-116.667 -53.5 -204 -53.5z" />
    <glyph glyph-name="scedilla" unicode="&#x15f;" horiz-adv-x="829" 
d="M65 64l66.9971 179.999c106 -69.333 191.333 -104 256 -104c117.333 0 176 49.333 176 148c0 70.667 -56.667 131.334 -170 182.001c-87.333 40 -146.166 70.333 -176.499 91s-56.666 44.167 -78.999 70.5s-39 54.333 -50 84s-16.5 61.5 -16.5 95.5
c0 88 32 156.667 96 206s147.667 74 251 74c78 0 176.333 -24.667 295 -74l-54 -176c-75.333 60 -151 90 -227 90c-45.333 0 -83.5 -10.667 -114.5 -32s-46.5 -48.333 -46.5 -81c0 -68.667 39 -120.667 117 -156l136 -62c83.333 -38 144 -81.333 182 -130
s57 -109.667 57 -183c0 -96 -33.667 -171.167 -101 -225.5s-160.666 -81.5 -279.999 -81.5c-112.667 0 -218.667 28 -318 84zM224.997 -455.001l-24 99.001c52 0 95.333 9 130 27s52 43 52 75c0 49.333 -30 74 -90 74v119c66 0 117.333 -18.667 154 -56s55 -83 55 -137
c0 -62.667 -24.333 -111.834 -73 -147.501s-116.667 -53.5 -204 -53.5z" />
    <glyph glyph-name="Scaron" unicode="&#x160;" horiz-adv-x="985" 
d="M84 67l73.0029 184.002c37.333 -27.333 83.833 -50.166 139.5 -68.499s105.5 -27.5 149.5 -27.5c78 0 140.667 21.333 188 64s71 97 71 163c0 49.333 -13.167 95.166 -39.5 137.499s-92.5 88.5 -198.5 138.5l-118 55c-100 46.667 -169.833 102 -209.5 166
s-59.5 141 -59.5 231c0 109.333 38.667 200 116 272s176.666 108 297.999 108c162 0 274.667 -26.333 338 -79l-59 -174c-26.667 19.333 -67.334 38 -122.001 56s-105.334 27 -152.001 27c-68 0 -121.5 -19.333 -160.5 -58s-58.5 -88.334 -58.5 -149.001
c0 -37.333 7 -71.333 21 -102s33.5 -56.334 58.5 -77.001s76.167 -49.667 153.5 -87l120 -57c100 -47.333 170.167 -103.833 210.5 -169.5s60.5 -149.167 60.5 -250.5c0 -110 -44.167 -203.333 -132.5 -280s-206.5 -115 -354.5 -115c-130 0 -241 30.667 -333 92z
M859.003 1919l-305 -334h-107l-298 338h172l178 -192l163 188h197z" />
    <glyph glyph-name="scaron" unicode="&#x161;" horiz-adv-x="829" 
d="M65 64l66.9971 179.999c106 -69.333 191.333 -104 256 -104c117.333 0 176 49.333 176 148c0 70.667 -56.667 131.334 -170 182.001c-87.333 40 -146.166 70.333 -176.499 91s-56.666 44.167 -78.999 70.5s-39 54.333 -50 84s-16.5 61.5 -16.5 95.5
c0 88 32 156.667 96 206s147.667 74 251 74c78 0 176.333 -24.667 295 -74l-54 -176c-75.333 60 -151 90 -227 90c-45.333 0 -83.5 -10.667 -114.5 -32s-46.5 -48.333 -46.5 -81c0 -68.667 39 -120.667 117 -156l136 -62c83.333 -38 144 -81.333 182 -130
s57 -109.667 57 -183c0 -96 -33.667 -171.167 -101 -225.5s-160.666 -81.5 -279.999 -81.5c-112.667 0 -218.667 28 -318 84zM761.997 1619l-305 -334h-107l-298 338h172l178 -192l163 188h197z" />
    <glyph glyph-name="Tcedilla" unicode="&#x162;" horiz-adv-x="1189" 
d="M684 1285v-1285h-200v1285h-466v180h1153v-180h-487zM504 -537l-47 63c48 38.667 75.167 65.5 81.5 80.5s9.5 29.833 9.5 44.5c0 22 -11.5 44.167 -34.5 66.5s-34.5 45.5 -34.5 69.5c0 68.667 34 103 102 103c72 0 108 -41.333 108 -124
c0 -125.333 -61.667 -226.333 -185 -303z" />
    <glyph glyph-name="tcedilla" unicode="&#x163;" horiz-adv-x="812" 
d="M203 921h-123.999v150h124v224l190 73v-297h294v-150h-294v-532c0 -90 15.167 -154 45.5 -192s79.166 -57 146.499 -57c48.667 0 99 12.333 151 37l28 -167c-78.667 -20 -165 -30 -259 -30c-84.667 0 -156.167 31.5 -214.5 94.5s-87.5 142.5 -87.5 238.5v608z
M386.001 -537l-47 63c48 38.667 75.167 65.5 81.5 80.5s9.5 29.833 9.5 44.5c0 22 -11.5 44.167 -34.5 66.5s-34.5 45.5 -34.5 69.5c0 68.667 34 103 102 103c72 0 108 -41.333 108 -124c0 -125.333 -61.667 -226.333 -185 -303z" />
    <glyph glyph-name="Tcaron" unicode="&#x164;" horiz-adv-x="1189" 
d="M684 1285v-1285h-200v1285h-466v180h1153v-180h-487zM949 1919l-305 -334h-107l-298 338h172l178 -192l163 188h197z" />
    <glyph glyph-name="tcaron" unicode="&#x165;" horiz-adv-x="1016" 
d="M203 921h-123.999v150h124v224l190 73v-297h294v-150h-294v-532c0 -90 15.167 -154 45.5 -192s79.166 -57 146.499 -57c48.667 0 99 12.333 151 37l28 -167c-78.667 -20 -165 -30 -259 -30c-84.667 0 -156.167 31.5 -214.5 94.5s-87.5 142.5 -87.5 238.5v608z
M809.001 952l-47 63c48 38.667 75.167 65.5 81.5 80.5s9.5 29.833 9.5 44.5c0 22 -11.5 44.167 -34.5 66.5s-34.5 45.5 -34.5 69.5c0 68.667 34 103 102 103c72 0 108 -41.333 108 -124c0 -125.333 -61.667 -226.333 -185 -303z" />
    <glyph glyph-name="Tbar" unicode="&#x166;" horiz-adv-x="1189" 
d="M1171 1285h-487v-505h317v-147h-317v-633h-200v633h-315v147h315v505h-466v180h1153v-180z" />
    <glyph glyph-name="tbar" unicode="&#x167;" horiz-adv-x="812" 
d="M764 10c-76 -20 -161.999 -30.001 -257.999 -30.001c-84.667 0 -156.334 31.333 -215.001 94s-88 142.334 -88 239.001v207h-154v139h154v262h-154v150h154v223l190 74v-297h313v-150h-313v-262h262v-139h-262v-131c0 -90.667 15.333 -155 46 -193s79.667 -57 147 -57
c48 0 97.667 12.333 149 37z" />
    <glyph glyph-name="Utilde" unicode="&#x168;" horiz-adv-x="1328" 
d="M150 1465h199.998v-1003c0 -89.333 28.333 -162.833 85 -220.5s131.667 -86.5 225 -86.5c98.667 0 176.334 28 233.001 84s85 132 85 228v998h200v-1019c0 -148 -46.167 -263.5 -138.5 -346.5s-218.166 -124.5 -377.499 -124.5c-164 0 -290.333 40.667 -379 122
s-133 198 -133 350v1018zM981.998 1792c-35.333 -138 -99.332 -207 -191.999 -207c-42 0 -88.167 12.833 -138.5 38.5s-85.833 38.5 -106.5 38.5c-47.333 0 -83.333 -25.667 -108 -77h-91c9.33301 56 30.833 104.5 64.5 145.5s73.5 61.5 119.5 61.5
c54.667 0 105.167 -12.833 151.5 -38.5s81.166 -38.5 104.499 -38.5c54 0 90 25.667 108 77h88z" />
    <glyph glyph-name="utilde" unicode="&#x169;" horiz-adv-x="1119" 
d="M315 1071l-0.00292969 -683c0 -165.333 71.667 -248 215 -248c62.667 0 120 18 172 54s86.333 77.667 103 125v752h190v-1071h-190v148c-21.333 -42 -64.166 -80.5 -128.499 -115.5s-127.166 -52.5 -188.499 -52.5c-117.333 0 -207.166 33.667 -269.499 101
s-93.5 163 -93.5 287v703h190zM877.997 1492c-35.333 -138 -99.332 -207 -191.999 -207c-42 0 -88.167 12.833 -138.5 38.5s-85.833 38.5 -106.5 38.5c-47.333 0 -83.333 -25.667 -108 -77h-91c9.33301 56 30.833 104.5 64.5 145.5s73.5 61.5 119.5 61.5
c54.667 0 105.167 -12.833 151.5 -38.5s81.166 -38.5 104.499 -38.5c54 0 90 25.667 108 77h88z" />
    <glyph glyph-name="Umacron" unicode="&#x16a;" horiz-adv-x="1328" 
d="M150 1465h199.998v-1003c0 -89.333 28.333 -162.833 85 -220.5s131.667 -86.5 225 -86.5c98.667 0 176.334 28 233.001 84s85 132 85 228v998h200v-1019c0 -148 -46.167 -263.5 -138.5 -346.5s-218.166 -124.5 -377.499 -124.5c-164 0 -290.333 40.667 -379 122
s-133 198 -133 350v1018zM1033 1726v-141h-738v141h738z" />
    <glyph glyph-name="umacron" unicode="&#x16b;" horiz-adv-x="1119" 
d="M315 1071l-0.00292969 -683c0 -165.333 71.667 -248 215 -248c62.667 0 120 18 172 54s86.333 77.667 103 125v752h190v-1071h-190v148c-21.333 -42 -64.166 -80.5 -128.499 -115.5s-127.166 -52.5 -188.499 -52.5c-117.333 0 -207.166 33.667 -269.499 101
s-93.5 163 -93.5 287v703h190zM928.997 1426v-141h-738v141h738z" />
    <glyph glyph-name="Ubreve" unicode="&#x16c;" horiz-adv-x="1328" 
d="M150 1465h199.998v-1003c0 -89.333 28.333 -162.833 85 -220.5s131.667 -86.5 225 -86.5c98.667 0 176.334 28 233.001 84s85 132 85 228v998h200v-1019c0 -148 -46.167 -263.5 -138.5 -346.5s-218.166 -124.5 -377.499 -124.5c-164 0 -290.333 40.667 -379 122
s-133 198 -133 350v1018zM994.998 1910c0 -78.667 -31.334 -152.498 -94.001 -221.498s-146 -103.5 -250 -103.5c-99.333 0 -177.333 31.333 -234 94s-85 139.667 -85 231h141c-2 -40.667 15 -79.334 51 -116.001s78.333 -55 127 -55c56.667 0 104.334 17.167 143.001 51.5
s58 74.166 58 119.499h143z" />
    <glyph glyph-name="ubreve" unicode="&#x16d;" horiz-adv-x="1119" 
d="M315 1071l-0.00292969 -683c0 -165.333 71.667 -248 215 -248c62.667 0 120 18 172 54s86.333 77.667 103 125v752h190v-1071h-190v148c-21.333 -42 -64.166 -80.5 -128.499 -115.5s-127.166 -52.5 -188.499 -52.5c-117.333 0 -207.166 33.667 -269.499 101
s-93.5 163 -93.5 287v703h190zM903.997 1610c0 -78.667 -31.334 -152.498 -94.001 -221.498s-146 -103.5 -250 -103.5c-99.333 0 -177.333 31.333 -234 94s-85 139.667 -85 231h141c-2 -40.667 15 -79.334 51 -116.001s78.333 -55 127 -55
c56.667 0 104.334 17.167 143.001 51.5s58 74.166 58 119.499h143z" />
    <glyph glyph-name="Uring" unicode="&#x16e;" horiz-adv-x="1328" 
d="M150 1465h199.998v-1003c0 -89.333 28.333 -162.833 85 -220.5s131.667 -86.5 225 -86.5c98.667 0 176.334 28 233.001 84s85 132 85 228v998h200v-1019c0 -148 -46.167 -263.5 -138.5 -346.5s-218.166 -124.5 -377.499 -124.5c-164 0 -290.333 40.667 -379 122
s-133 198 -133 350v1018zM677.998 1904c58.667 0 108.5 -20.333 149.5 -61s61.5 -90 61.5 -148s-20.667 -107.5 -62 -148.5s-91 -61.5 -149 -61.5c-58.667 0 -108.667 20.5 -150 61.5s-62 90.5 -62 148.5s20.667 107.333 62 148s91.333 61 150 61zM677.998 1595
c28 0 51.833 9.83301 71.5 29.5s29.5 43.167 29.5 70.5s-9.83301 50.666 -29.5 69.999s-43.5 29 -71.5 29s-52 -9.66699 -72 -29s-30 -42.666 -30 -69.999s10 -50.833 30 -70.5s44 -29.5 72 -29.5z" />
    <glyph glyph-name="uring" unicode="&#x16f;" horiz-adv-x="1119" 
d="M315 1071l-0.00292969 -683c0 -165.333 71.667 -248 215 -248c62.667 0 120 18 172 54s86.333 77.667 103 125v752h190v-1071h-190v148c-21.333 -42 -64.166 -80.5 -128.499 -115.5s-127.166 -52.5 -188.499 -52.5c-117.333 0 -207.166 33.667 -269.499 101
s-93.5 163 -93.5 287v703h190zM587.997 1704c58.667 0 108.5 -20.333 149.5 -61s61.5 -90 61.5 -148s-20.667 -107.5 -62 -148.5s-91 -61.5 -149 -61.5c-58.667 0 -108.667 20.5 -150 61.5s-62 90.5 -62 148.5s20.667 107.333 62 148s91.333 61 150 61zM587.997 1395
c28 0 51.833 9.83301 71.5 29.5s29.5 43.167 29.5 70.5s-9.83301 50.666 -29.5 69.999s-43.5 29 -71.5 29s-52 -9.66699 -72 -29s-30 -42.666 -30 -69.999s10 -50.833 30 -70.5s44 -29.5 72 -29.5z" />
    <glyph glyph-name="Udblacute" unicode="&#x170;" horiz-adv-x="1328" 
d="M150 1465h199.998v-1003c0 -89.333 28.333 -162.833 85 -220.5s131.667 -86.5 225 -86.5c98.667 0 176.334 28 233.001 84s85 132 85 228v998h200v-1019c0 -148 -46.167 -263.5 -138.5 -346.5s-218.166 -124.5 -377.499 -124.5c-164 0 -290.333 40.667 -379 122
s-133 198 -133 350v1018zM719.998 1868l-199 -283h-140l142 283h197zM1090 1868l-199 -283h-140l142 283h197z" />
    <glyph glyph-name="udblacute" unicode="&#x171;" horiz-adv-x="1119" 
d="M315 1071l-0.00292969 -683c0 -165.333 71.667 -248 215 -248c62.667 0 120 18 172 54s86.333 77.667 103 125v752h190v-1071h-190v148c-21.333 -42 -64.166 -80.5 -128.499 -115.5s-127.166 -52.5 -188.499 -52.5c-117.333 0 -207.166 33.667 -269.499 101
s-93.5 163 -93.5 287v703h190zM629.997 1568l-199 -283h-140l142 283h197zM999.997 1568l-199 -283h-140l142 283h197z" />
    <glyph glyph-name="Uogonek" unicode="&#x172;" horiz-adv-x="1328" 
d="M1178 446c0 -148.667 -46 -263.999 -138 -345.999c-55.333 -49.333 -141.333 -88 -258 -116c-20 -5.33301 -37 -20 -51 -44c-10.667 -18 -16 -42.333 -16 -73c0 -62.667 37 -94 111 -94c36 0 71.667 10.333 107 31l67 -142c-64 -23.333 -123.333 -35 -178 -35
c-76.667 0 -140.334 22 -191.001 66c-54 46 -81 106.667 -81 182c0 36.667 7 71.667 21 105c-280.667 29.333 -421 184.666 -421 465.999v1019h200v-1002c0 -92 28.333 -166.167 85 -222.5s131.334 -84.5 224.001 -84.5c96.667 0 174 27.5 232 82.5s87 131.167 87 228.5v998
h200v-1019z" />
    <glyph glyph-name="uogonek" unicode="&#x173;" horiz-adv-x="1119" 
d="M1182 -338c-64 -23.333 -123.331 -34.999 -177.998 -34.999c-76.667 0 -140.334 22 -191.001 66c-54 46 -81 106.667 -81 182c0 69.333 24.333 131.333 73 186v86c-20 -40.667 -62.833 -78.667 -128.5 -114s-128.834 -53 -189.501 -53
c-114.667 0 -203.667 33.667 -267 101s-95 163.333 -95 288v702h190v-684c0 -165.333 71.667 -248 215 -248c60 0 117.333 18.667 172 56c52.667 36 87 77.333 103 124v752h190v-1071c-37.333 -18 -62 -34.667 -74 -50c-16 -18.667 -24 -46.334 -24 -83.001
c0 -62.667 37 -94 111 -94c36 0 71.667 10.333 107 31z" />
    <glyph glyph-name="Wcircumflex" unicode="&#x174;" horiz-adv-x="1745" 
d="M1276 -20h-63l-349 1010l-326 -1010h-63l-462 1485h208l294 -1023l322 1023h70l318 -1021l299 1021h208zM1035 1585l-163 189l-178 -189h-172l298 338h107l305 -338h-197z" />
    <glyph glyph-name="wcircumflex" unicode="&#x175;" horiz-adv-x="1524" 
d="M1125 -20h-50l-314 729l-313 -729h-50l-383 1094h203l229 -703l285 703h50l294 -703l246 703h187zM920 1285l-163 189l-178 -189h-172l298 338h107l305 -338h-197z" />
    <glyph glyph-name="Ycircumflex" unicode="&#x176;" horiz-adv-x="1168" 
d="M685 656v-656h-200v656l-472 809h206l365 -640l365 640h206zM747 1585l-163 189l-178 -189h-172l298 338h107l305 -338h-197z" />
    <glyph glyph-name="ycircumflex" unicode="&#x177;" horiz-adv-x="1010" 
d="M544 -182c-24.667 -68 -76.5 -124.667 -155.5 -170s-167.167 -68 -264.5 -68v170c79.333 0 147.333 18.5 204 55.5s85 82.167 85 135.5c0 58.667 -10.333 116.5 -31 173.5l-80 211.5l-290 745h194l315 -828l283 828h194zM668 1285l-163 189l-178 -189h-172l298 338h107
l305 -338h-197z" />
    <glyph glyph-name="Ydieresis" unicode="&#x178;" horiz-adv-x="1168" 
d="M685 656v-656h-200v656l-472 809h206l365 -640l365 640h206zM354 1813c31.333 0 57.833 -10.833 79.5 -32.5s32.5 -48.167 32.5 -79.5s-10.833 -58 -32.5 -80s-48.167 -33 -79.5 -33s-58 11 -80 33s-33 48.667 -33 80s11 57.833 33 79.5s48.667 32.5 80 32.5zM826 1813
c31.333 0 58 -10.833 80 -32.5s33 -48.167 33 -79.5s-11 -58 -33 -80s-48.667 -33 -80 -33s-57.833 11 -79.5 33s-32.5 48.667 -32.5 80s10.833 57.833 32.5 79.5s48.167 32.5 79.5 32.5z" />
    <glyph glyph-name="Zacute" unicode="&#x179;" horiz-adv-x="1127" 
d="M100 0v50l630 1235h-620v180h895v-50l-632 -1235h654v-180h-927zM703 1918l-226 -333h-140l169 333h197z" />
    <glyph glyph-name="zacute" unicode="&#x17a;" horiz-adv-x="972" 
d="M338 170h594v-170h-892v50l609 851h-599v170h876v-54zM673 1618l-226 -333h-140l169 333h197z" />
    <glyph glyph-name="Zdot" unicode="&#x17b;" horiz-adv-x="1127" 
d="M100 0v50l630 1235h-620v180h895v-50l-632 -1235h654v-180h-927zM494 1820c32.667 0 60.499 -11.501 83.499 -34.501s34.5 -50.5 34.5 -82.5c0 -32.667 -11.5 -60.5 -34.5 -83.5s-50.833 -34.5 -83.5 -34.5c-32 0 -59.5 11.5 -82.5 34.5s-34.5 50.833 -34.5 83.5
s11.333 60.334 34 83.001s50.334 34 83.001 34z" />
    <glyph glyph-name="zdot" unicode="&#x17c;" horiz-adv-x="972" 
d="M338 170h594v-170h-892v50l609 851h-599v170h876v-54zM494 1520c32.667 0 60.499 -11.501 83.499 -34.501s34.5 -50.5 34.5 -82.5c0 -32.667 -11.5 -60.5 -34.5 -83.5s-50.833 -34.5 -83.5 -34.5c-32 0 -59.5 11.5 -82.5 34.5s-34.5 50.833 -34.5 83.5
s11.333 60.334 34 83.001s50.334 34 83.001 34z" />
    <glyph glyph-name="Zcaron" unicode="&#x17d;" horiz-adv-x="1127" 
d="M100 0v50l630 1235h-620v180h895v-50l-632 -1235h654v-180h-927zM898 1919l-305 -334h-107l-298 338h172l178 -192l163 188h197z" />
    <glyph glyph-name="zcaron" unicode="&#x17e;" horiz-adv-x="972" 
d="M338 170h594v-170h-892v50l609 851h-599v170h876v-54zM828 1619l-305 -334h-107l-298 338h172l178 -192l163 188h197z" />
    <glyph glyph-name="longs" unicode="&#x17f;" horiz-adv-x="678" 
d="M698 1482l-47 -145.999c-38 12.667 -76 19 -114 19c-60 0 -106.667 -22 -140 -66c-36.667 -48.667 -55 -135.334 -55 -260.001v-1029h-190v1058c0 147.333 33.5 259.5 100.5 336.5s156.167 115.5 267.5 115.5c54.667 0 114 -9.33301 178 -28z" />
    <glyph glyph-name="florin" unicode="&#x192;" horiz-adv-x="795" 
d="M802 1332c-50.667 18.667 -90.001 27.998 -118.001 27.998c-132.667 0 -211.667 -96 -237 -288c22.667 -1.33301 46 -2 70 -2c56 0 116.333 3.33301 181 10l-13 -116c-111.333 -16 -199.666 -25.667 -264.999 -29l-165 -1008c-16 -96 -57.833 -173 -125.5 -231
s-151.5 -92.667 -251.5 -104c-0.666992 -0.666992 -1.66699 1 -3 5s-3.83301 10.833 -7.5 20.5s-7.5 20.834 -11.5 33.501l-19 57c-8.66699 24.667 -13 37.667 -13 39c54 10.667 106 33.334 156 68.001s78.333 72 85 112l166 999c-29.333 0 -79.666 -4.33301 -150.999 -13
l30 158l147 1c58.667 292 205 438 439 438c35.333 0 82.666 -10 141.999 -30z" />
    <glyph glyph-name="Aringacute" unicode="&#x1fa;" horiz-adv-x="1208" 
d="M1204 0l-222 -0.00195312l-107 309h-535l-112 -309h-224l562 1304c-100.667 30.667 -151 94.334 -151 191.001c0 92 44 153.667 132 185l99 198h196l-134 -198c86.667 -32 130 -93.667 130 -185c0 -101.333 -51.667 -165.666 -155 -192.999zM728 1495
c0 59.333 -33.666 89 -100.999 89c-28.667 0 -52.834 -8.16699 -72.501 -24.5s-29.5 -37.833 -29.5 -64.5c0 -60 34 -90 102 -90c67.333 0 101 30 101 90zM823.001 455.998l-207 595l-220 -595h427z" />
    <glyph glyph-name="aringacute" unicode="&#x1fb;" horiz-adv-x="1076" 
d="M740 123c-76 -95.333 -192.333 -143 -349 -143c-84 0 -156.833 30.5 -218.5 91.5s-92.5 136.833 -92.5 227.5c0 108.667 47.5 200.5 142.5 275.5s216.167 112.5 363.5 112.5c40 0 85.333 -8.66699 136 -26c0 173.333 -77.333 260 -232 260c-118.667 0 -210 -32 -274 -96
l-80 159c36 29.333 85.833 54.5 149.5 75.5s124.5 31.5 182.5 31.5c155.333 0 268.166 -35.333 338.499 -106s105.5 -183 105.5 -337v-384c0 -94 28 -156.667 84 -188v-95c-77.333 0 -135.166 11 -173.499 33s-65.833 58.333 -82.5 109zM722 526
c-60 13.333 -102 19.999 -126 19.999c-96 0 -174.333 -24.667 -235 -74s-91 -107.666 -91 -174.999c0 -111.333 65.667 -167 197 -167c96 0 181 45.667 255 137v259zM514 1554c58.667 0 108.5 -20.333 149.5 -61s61.5 -90 61.5 -148s-20.667 -107.5 -62 -148.5
s-91 -61.5 -149 -61.5c-58.667 0 -108.667 20.5 -150 61.5s-62 90.5 -62 148.5s20.667 107.333 62 148s91.333 61 150 61zM514 1245c28 0 51.833 9.83301 71.5 29.5s29.5 43.167 29.5 70.5s-9.83301 50.666 -29.5 69.999s-43.5 29 -71.5 29s-52 -9.66699 -72 -29
s-30 -42.666 -30 -69.999s10 -50.833 30 -70.5s44 -29.5 72 -29.5zM765 1931l-226 -333h-140l169 333h197z" />
    <glyph glyph-name="AEacute" unicode="&#x1fc;" horiz-adv-x="1775" 
d="M828 307h-448l-139 -307h-224l705 1465h981v-180h-675v-407h484v-170h-484v-528h664v-180h-864v307zM828 1285l-384 -829h384v829zM1394 1918l-226 -333h-140l169 333h197z" />
    <glyph glyph-name="aeacute" unicode="&#x1fd;" horiz-adv-x="1788" 
d="M1696 517l-762.001 0.000976562c0 -113.333 29.667 -204.5 89 -273.5s138.666 -103.5 237.999 -103.5c116.667 0 208 36.333 274 109l80 -152c-52 -46 -108.333 -77 -169 -93s-134.667 -24 -222 -24c-113.333 0 -212.666 31.667 -297.999 95
c3.33301 -33.333 7 -65 11 -95h-161l-35 143c-76 -95.333 -189 -143 -339 -143c-88.667 0 -164.5 29.167 -227.5 87.5s-94.5 129.5 -94.5 213.5c0 121.333 47.167 218.666 141.5 291.999s217.833 110 370.5 110c37.333 0 81.333 -7.33301 132 -22
c0 173.333 -77.667 260 -233 260c-118.667 0 -210 -32 -274 -96l-80 159c36 29.333 85.833 54.5 149.5 75.5s124.5 31.5 182.5 31.5c195.333 0 325 -57.667 389 -173c98.667 115.333 221.334 173 368.001 173c148 0 265.833 -44.333 353.5 -133s131.5 -203.667 131.5 -345
c0 -30.667 -5 -62.667 -15 -96zM933.999 655.001h598c0 82 -28.167 148.5 -84.5 199.5s-130.5 76.5 -222.5 76.5c-82 0 -151 -30 -207 -90s-84 -122 -84 -186zM723.999 526.001c-40 13.333 -82.332 20 -126.999 20c-94.667 0 -172.834 -26.5 -234.501 -79.5
s-92.5 -109.5 -92.5 -169.5c0 -111.333 66 -167 198 -167c96.667 0 182 45.667 256 137v259zM1160 1618l-226 -333h-140l169 333h197z" />
    <glyph glyph-name="Oslashacute" unicode="&#x1fe;" horiz-adv-x="1345" 
d="M350 66l-67 -91.001h-216l160 211c-106.667 142.667 -160 329 -160 559c0 212 53.167 389.333 159.5 532s249.833 214 430.5 214c142.667 0 263 -33.333 361 -100l67 100h202l-144 -220c96 -129.333 144 -304.666 144 -525.999c0 -240.667 -54.333 -429.167 -163 -565.5
s-264.334 -204.5 -467.001 -204.5c-117.333 0 -219.666 30.333 -306.999 91zM913 1229c-66 54.667 -151.333 82 -256 82c-124 0 -218.333 -50.667 -283 -152s-97 -239.333 -97 -414c0 -144.667 25.667 -270.667 77 -378zM1019 1083l-561.999 -856.001
c56 -48 122.667 -72 200 -72c137.333 0 241.666 52 312.999 156s107 248.667 107 434c0 136.667 -19.333 249.334 -58 338.001zM876.001 1918l-226 -333h-140l169 333h197z" />
    <glyph glyph-name="oslashacute" unicode="&#x1ff;" horiz-adv-x="1117" 
d="M270 58l-58 -78h-151l119 162c-79.333 99.333 -119 231.333 -119 396c0 165.333 44.5 298.833 133.5 400.5s206.167 152.5 351.5 152.5c110 0 202.667 -25.333 278 -76l56 76h150l-117 -159c78 -97.333 117 -228.666 117 -393.999
c0 -172.667 -43.333 -308.834 -130 -408.501s-204.667 -149.5 -354 -149.5c-108 0 -200 26 -276 78zM295 297l424 575c-50 36 -107.667 54 -173 54c-89.333 0 -160.833 -34.333 -214.5 -103s-80.5 -163.667 -80.5 -285c0 -98.667 14.667 -179 44 -241zM373 199
c46 -42.667 103.668 -64 173.001 -64c89.333 0 160.666 36.167 213.999 108.5s80 170.5 80 294.5c0 97.333 -14.333 176.333 -43 237zM770.001 1618l-226 -333h-140l169 333h197z" />
    <glyph glyph-name="circumflex" unicode="&#x2c6;" 
d="M682 1285l-163 189l-178 -189h-172l298 338h107l305 -338h-197z" />
    <glyph glyph-name="caron" unicode="&#x2c7;" 
d="M879 1619l-305 -334h-107l-298 338h172l178 -192l163 188h197z" />
    <glyph glyph-name="macron" unicode="&#x2c9;" 
d="M913 1426v-141h-738v141h738z" />
    <glyph glyph-name="breve" unicode="&#x2d8;" 
d="M870 1610c0 -78.667 -31.334 -152.498 -94.001 -221.498s-146 -103.5 -250 -103.5c-99.333 0 -177.333 31.333 -234 94s-85 139.667 -85 231h141c-2 -40.667 15 -79.334 51 -116.001s78.333 -55 127 -55c56.667 0 104.334 17.167 143.001 51.5s58 74.166 58 119.499h143z
" />
    <glyph glyph-name="dotaccent" unicode="&#x2d9;" 
d="M535 1520c32.667 0 60.499 -11.501 83.499 -34.501s34.5 -50.5 34.5 -82.5c0 -32.667 -11.5 -60.5 -34.5 -83.5s-50.833 -34.5 -83.5 -34.5c-32 0 -59.5 11.5 -82.5 34.5s-34.5 50.833 -34.5 83.5s11.333 60.334 34 83.001s50.334 34 83.001 34z" />
    <glyph glyph-name="ring" unicode="&#x2da;" 
d="M508 1704c58.667 0 108.5 -20.333 149.5 -61s61.5 -90 61.5 -148s-20.667 -107.5 -62 -148.5s-91 -61.5 -149 -61.5c-58.667 0 -108.667 20.5 -150 61.5s-62 90.5 -62 148.5s20.667 107.333 62 148s91.333 61 150 61zM508 1395c28 0 51.833 9.83301 71.5 29.5
s29.5 43.167 29.5 70.5s-9.83301 50.666 -29.5 69.999s-43.5 29 -71.5 29s-52 -9.66699 -72 -29s-30 -42.666 -30 -69.999s10 -50.833 30 -70.5s44 -29.5 72 -29.5z" />
    <glyph glyph-name="ogonek" unicode="&#x2db;" 
d="M714 -196l67 -142.001c-64 -23.333 -123.333 -35 -178 -35c-78 0 -142.833 23 -194.5 69s-77.5 105.667 -77.5 179c0 116 68.333 211.333 205 286l58 -161c-44 -21.333 -71.333 -41.166 -82 -59.499s-16 -42.833 -16 -73.5c0 -62.667 37 -94 111 -94
c36 0 71.667 10.333 107 31z" />
    <glyph glyph-name="tilde" unicode="&#x2dc;" 
d="M840 1492c-35.333 -138 -99.332 -207 -191.999 -207c-42 0 -88.167 12.833 -138.5 38.5s-85.833 38.5 -106.5 38.5c-47.333 0 -83.333 -25.667 -108 -77h-91c9.33301 56 30.833 104.5 64.5 145.5s73.5 61.5 119.5 61.5c54.667 0 105.167 -12.833 151.5 -38.5
s81.166 -38.5 104.499 -38.5c54 0 90 25.667 108 77h88z" />
    <glyph glyph-name="hungarumlaut" unicode="&#x2dd;" 
d="M540 1568l-199 -283h-140l142 283h197zM910 1568l-199 -283h-140l142 283h197z" />
    <glyph glyph-name="questiongreek" unicode="&#x37e;" horiz-adv-x="752" 
d="M354 1091c41.333 0 76.666 -14.667 105.999 -44s44 -64.666 44 -105.999s-14.667 -76.833 -44 -106.5s-64.666 -44.5 -105.999 -44.5s-76.666 14.833 -105.999 44.5s-44 65.167 -44 106.5s14.667 76.666 44 105.999s64.666 44 105.999 44zM224 -363l-50.999 72.002
c114.667 94 172 174 172 240c0 29.333 -10 58.666 -30 87.999c-57.333 27.333 -86 66.666 -86 117.999c0 35.333 13.667 64.5 41 87.5s61.666 34.5 102.999 34.5c36.667 0 69.5 -16 98.5 -48s43.5 -69.333 43.5 -112c0 -88.667 -18.5 -168.5 -55.5 -239.5
s-115.5 -151.167 -235.5 -240.5z" />
    <glyph glyph-name="tonos" unicode="&#x384;" horiz-adv-x="1073" 
d="M731 1618l-178 -334h-158l111 334h225z" />
    <glyph glyph-name="dieresistonos" unicode="&#x385;" horiz-adv-x="1073" 
d="M672 1618l-117 -354h-117l58 354h176zM823 1518c32.667 0 60.333 -10.668 83 -32.001s34 -47.666 34 -78.999s-11.167 -58.333 -33.5 -81s-49.5 -34 -81.5 -34c-31.333 0 -57.833 11.167 -79.5 33.5s-32.5 49.5 -32.5 81.5s10.5 58.5 31.5 79.5s47.167 31.5 78.5 31.5z
M357.999 1407h2c0 -32 -10.833 -59.167 -32.5 -81.5s-48.167 -33.5 -79.5 -33.5c-32.667 0 -60 11.167 -82 33.5s-33 49.5 -33 81.5c0 31.333 10.833 57.666 32.5 78.999s48.5 32 80.5 32c31.333 0 57.833 -10.667 79.5 -32s32.5 -47.666 32.5 -78.999z" />
    <glyph glyph-name="Alphatonos" unicode="&#x386;" horiz-adv-x="1208" 
d="M981 0l-100 309h-545l-109 -309h-223l594 1485h53l553 -1485h-223zM616 1102l-227 -645h434zM373 1464l-164 -350h-154l101 350h217z" />
    <glyph glyph-name="anoteleia" unicode="&#x387;" horiz-adv-x="754" 
d="M356 805c41.333 0 77 -15 107 -45s45 -65.667 45 -107c0 -36 -14 -70.167 -42 -102.5s-64.667 -48.5 -110 -48.5c-40.667 0 -75.667 14.667 -105 44s-44 65 -44 107c0 43.333 14.833 79.5 44.5 108.5s64.5 43.5 104.5 43.5z" />
    <glyph glyph-name="Epsilontonos" unicode="&#x388;" horiz-adv-x="1323" 
d="M575 1284v-405h484v-170h-484v-529h664v-180h-864v1464h874v-180h-674zM223 1464l-164 -350h-153l100 350h217z" />
    <glyph glyph-name="Etatonos" unicode="&#x389;" horiz-adv-x="1565" 
d="M1214 0v709h-639v-709h-200v1464h200v-585h639v585h201v-1464h-201zM223 1464l-164 -350h-153l100 350h217z" />
    <glyph glyph-name="Iotatonos" unicode="&#x38a;" horiz-adv-x="760" 
d="M375 0v1464h200v-1464h-200zM223 1464l-164 -350h-153l100 350h217z" />
    <glyph glyph-name="Omicrontonos" unicode="&#x38c;" horiz-adv-x="1483" 
d="M182 745c0 148.667 26.167 280.167 78.5 394.5s121.333 201.5 207 261.5s187.167 90 304.5 90c205.333 0 361.833 -66.333 469.5 -199s161.5 -315 161.5 -547c0 -238.667 -54.333 -426.667 -163 -564s-264.667 -206 -468 -206c-186 0 -330.833 72 -434.5 216
s-155.5 328.667 -155.5 554zM393 745c0 -164.667 32.168 -304 96.501 -418s158.5 -171 282.5 -171c137.333 0 241.666 51.167 312.999 153.5s107 247.5 107 435.5c0 377.333 -140 566 -420 566c-121.333 0 -214.833 -49.5 -280.5 -148.5s-98.5 -238.167 -98.5 -417.5z
M223.001 1464l-164 -350h-153l100 350h217z" />
    <glyph glyph-name="Upsilontonos" unicode="&#x38e;" horiz-adv-x="1462" 
d="M1004 655v-655h-199v655l-473 809h207l364 -639l365 639h207zM223 1464l-164 -350h-153l100 350h217z" />
    <glyph glyph-name="Omegatonos" unicode="&#x38f;" horiz-adv-x="1520" 
d="M1448 0l-554.998 -0.000976562v51c103.333 129.333 182.666 253.166 237.999 371.499s83 241.833 83 370.5c0 168 -35.333 297.667 -106 389s-170.334 137 -299.001 137c-126 0 -224.333 -48.167 -295 -144.5s-106 -220.166 -106 -371.499
c0 -126 27.5 -248.833 82.5 -368.5s134.5 -247.5 238.5 -383.5v-51h-555v172c122 0 215 -3.33301 279 -10c-170.667 206.667 -256 419.667 -256 639c0 199.333 56.167 365.5 168.5 498.5s260.833 199.5 445.5 199.5c192.667 0 343.167 -63.833 451.5 -191.5
s162.5 -297.167 162.5 -508.5c0 -100.667 -22.5 -208.667 -67.5 -324s-109.167 -219.666 -192.5 -312.999c64 6.66699 158.333 10 283 10v-172zM223.002 1464l-164 -350h-153l100 350h217z" />
    <glyph glyph-name="iotadieresistonos" unicode="&#x390;" horiz-adv-x="569" 
d="M483 -18c-220.667 0 -331 103 -331 309v780h192v-756c0 -108.667 46.333 -166.667 139 -174v-159zM399 1618l-118 -354h-115l57 354h176zM551 1518c32 0 59.166 -10.667 81.499 -32s33.5 -47.666 33.5 -78.999s-11.333 -58.333 -34 -81s-49.667 -34 -81 -34
s-57.666 11.167 -78.999 33.5s-32 49.5 -32 81.5c0 31.333 10.5 57.666 31.5 78.999s47.5 32 79.5 32zM-27.001 1518c32 0 58.833 -10.667 80.5 -32s32.5 -47.666 32.5 -78.999c0 -32 -10.833 -59.167 -32.5 -81.5s-48.5 -33.5 -80.5 -33.5s-58.667 11.167 -80 33.5
s-32 49.5 -32 81.5c0 31.333 10.833 57.666 32.5 78.999s48.167 32 79.5 32z" />
    <glyph glyph-name="Alpha" unicode="&#x391;" horiz-adv-x="1208" 
d="M981 0l-100 309h-545l-109 -309h-223l594 1485h53l553 -1485h-223zM616 1102l-227 -645h434z" />
    <glyph glyph-name="Beta" unicode="&#x392;" horiz-adv-x="1159" 
d="M567 0l-417 0.00195312v1464c166 10 294.333 15 385 15c141.333 0 252.333 -30.833 333 -92.5s121 -151.834 121 -270.501c0 -66 -25.167 -127.333 -75.5 -184s-106.5 -92.334 -168.5 -107.001c222.667 -49.333 334 -183 334 -401c0 -129.333 -47 -232.333 -141 -309
s-217.667 -115 -371 -115zM350 1305l-0.000976562 -420c41.333 -4 93.333 -6 156 -6c190 0 285 77 285 231c0 135.333 -87.667 203 -263 203c-49.333 0 -108.666 -2.66699 -177.999 -8zM349.999 729.002v-559.001c74.667 -6.66699 127.334 -10 158.001 -10
c121.333 0 211.666 22.833 270.999 68.5s89 121.167 89 226.5c0 98.667 -28.5 169.834 -85.5 213.501s-138.833 65.5 -245.5 65.5c-6 0 -68.333 -1.66699 -187 -5z" />
    <glyph glyph-name="Gamma" unicode="&#x393;" horiz-adv-x="1044" 
d="M1004 1284h-652v-1284h-202v1464h854v-180z" />
    <glyph glyph-name="Delta" unicode="&#x394;" horiz-adv-x="1198" 
d="M25 0v124l526 1341h144l480 -1341v-124h-1150zM619 1216l-376 -1046h725z" />
    <glyph glyph-name="Epsilon" unicode="&#x395;" horiz-adv-x="1098" 
d="M350 1284v-405h484v-170h-484v-529h664v-180h-864v1464h874v-180h-674z" />
    <glyph glyph-name="Zeta" unicode="&#x396;" horiz-adv-x="1126" 
d="M100 0v49l629 1235h-618v180h895v-49l-633 -1235h653v-180h-926z" />
    <glyph glyph-name="Eta" unicode="&#x397;" horiz-adv-x="1339" 
d="M989 0v709h-639v-709h-200v1464h200v-585h639v585h201v-1464h-201z" />
    <glyph glyph-name="Theta" unicode="&#x398;" horiz-adv-x="1415" 
d="M713 1491c116 0 223.334 -28.5 322.001 -85.5s173.334 -144.833 224.001 -263.5s76 -251 76 -397c0 -238.667 -58.333 -426.667 -175 -564s-268.334 -206 -455.001 -206c-194.667 0 -347.5 68.667 -458.5 206s-166.5 325.333 -166.5 564c0 134.667 24.667 259 74 373
s122.166 204.667 218.499 272s209.833 101 340.5 101zM709.001 152c134 0 237.334 48.334 310.001 145.001s109 246 109 448c0 181.333 -36.667 321.666 -110 420.999s-177 149 -311 149c-134.667 0 -238.334 -50 -311.001 -150s-109 -240 -109 -420
c0 -187.333 36.833 -333 110.5 -437s177.5 -156 311.5 -156zM997.002 664.001h-579v176h579v-176z" />
    <glyph glyph-name="Iota" unicode="&#x399;" horiz-adv-x="569" 
d="M184 0v1464h201v-1464h-201z" />
    <glyph glyph-name="Kappa" unicode="&#x39a;" horiz-adv-x="1180" 
d="M958 0l-413 674l-195 -277v-397h-200v1464h200v-796l545 796h221l-436 -635l500 -829h-222z" />
    <glyph glyph-name="Lambda" unicode="&#x39b;" horiz-adv-x="1200" 
d="M1192 0h-225l-359 1071l-377 -1071h-223l580 1485h53z" />
    <glyph glyph-name="Mu" unicode="&#x39c;" horiz-adv-x="1452" 
d="M1253 0l-174 940l-319 -960h-51l-328 960l-170 -940h-191l275 1464h90l348 -1069l324 1069h90l297 -1464h-191z" />
    <glyph glyph-name="Nu" unicode="&#x39d;" horiz-adv-x="1307" 
d="M1098 -20l-758 1071v-1051h-190v1464h79l738 -1011v1011h190v-1484h-59z" />
    <glyph glyph-name="Xi" unicode="&#x39e;" horiz-adv-x="1223" 
d="M1120 0h-1018v170h412v541h-299v159h299v426h-399v168h993v-168h-399v-426h299v-159h-299v-541h411v-170z" />
    <glyph glyph-name="Omicron" unicode="&#x39f;" horiz-adv-x="1380" 
d="M80 745c0 212.667 53.165 390.167 159.498 532.5s249.833 213.5 430.5 213.5c204.667 0 360.834 -66.333 468.501 -199s161.5 -315 161.5 -547c0 -238.667 -54.167 -426.667 -162.5 -564s-264.166 -206 -467.499 -206c-186.667 0 -331.667 72 -435 216
s-155 328.667 -155 554zM290.998 745c0 -169.333 32.834 -309.833 98.501 -421.5s159.167 -167.5 280.5 -167.5c137.333 0 241.666 51.167 312.999 153.5s107 247.5 107 435.5c0 377.333 -140 566 -420 566c-121.333 0 -214.833 -49.5 -280.5 -148.5
s-98.5 -238.167 -98.5 -417.5z" />
    <glyph glyph-name="Pi" unicode="&#x3a0;" horiz-adv-x="1300" 
d="M1151 0h-201v1284h-600v-1284h-200v1464h1001v-1464z" />
    <glyph glyph-name="Rho" unicode="&#x3a1;" horiz-adv-x="1143" 
d="M350 563l-0.000976562 -563h-200v1464c126 7.33301 217.333 11 274 11c426 0 639 -142 639 -426c0 -329.333 -188.333 -494 -565 -494c-31.333 0 -80.666 2.66699 -147.999 8zM349.999 1284v-541l133 -10c248.667 0 373 97.667 373 293c0 178.667 -132.333 268 -397 268
c-34.667 0 -71 -3.33301 -109 -10z" />
    <glyph glyph-name="Sigma" unicode="&#x3a3;" horiz-adv-x="1110" 
d="M1040 1284h-616l373 -483l-441 -621h676v-180h-991v49l522 731l-483 637v47h960v-180z" />
    <glyph glyph-name="Tau" unicode="&#x3a4;" horiz-adv-x="1190" 
d="M684 1284v-1284h-201v1284h-465v180h1153v-180h-487z" />
    <glyph glyph-name="Upsilon" unicode="&#x3a5;" horiz-adv-x="1167" 
d="M709 655v-655h-199v655l-473 809h207l364 -639l365 639h207z" />
    <glyph glyph-name="Phi" unicode="&#x3a6;" horiz-adv-x="1561" 
d="M879 1372c183.333 -8.66699 330.168 -70.1689 440.501 -184.502s165.5 -258.833 165.5 -433.5c0 -178 -54.333 -327 -163 -447s-256.334 -184 -443.001 -192v-152h-199v152c-183.333 8.66699 -330.166 70.834 -440.499 186.501s-165.5 260.834 -165.5 435.501
c0 178 54.167 326.333 162.5 445s256.166 182 443.499 190v152h199v-152zM877.002 269.998c130 6 230.333 52 301 138s106 200 106 342c0 135.333 -35.5 245.5 -106.5 330.5s-171.167 130.5 -300.5 136.5v-947zM682.002 269.998l0.00195312 946.999
c-130.667 -6 -231.334 -51.5 -302.001 -136.5s-106 -198.167 -106 -339.5c0 -135.333 35.667 -246.166 107 -332.499s171.666 -132.5 300.999 -138.5z" />
    <glyph glyph-name="Chi" unicode="&#x3a7;" horiz-adv-x="1141" 
d="M915 0l-364 588l-336 -588h-203l432 760l-397 706l199 -2l311 -553l346 553h201l-455 -708l477 -756h-211z" />
    <glyph glyph-name="Psi" unicode="&#x3a8;" horiz-adv-x="1583" 
d="M1464 907c0 -156 -50.667 -283.333 -152 -382s-241 -156.334 -419 -173.001v-356h-199v354c-180.667 12.667 -321.667 67 -423 163s-152 222 -152 378v573h198v-555c0 -108.667 33 -199.167 99 -271.5s159.333 -113.5 280 -123.5v950h195v-950
c120 10.667 212.5 51.834 277.5 123.501s97.5 159.5 97.5 263.5v563h198v-557z" />
    <glyph glyph-name="Omega" unicode="&#x3a9;" horiz-adv-x="1370" 
d="M1295 0h-500v152c107.333 98.667 182.5 193.834 225.5 285.501s64.5 194.167 64.5 307.5c0 377.333 -138.333 566 -415 566c-124.667 0 -220 -51 -286 -153s-99 -239.667 -99 -413c0 -102.667 28.833 -215 86.5 -337s125.5 -208 203.5 -258v-150h-500v150h269
c-179.333 139.333 -269 337.666 -269 594.999c0 211.333 53.833 388.5 161.5 531.5s252.167 214.5 433.5 214.5c202.667 0 357.5 -65.333 464.5 -196s160.5 -314 160.5 -550c0 -122 -25.333 -236.167 -76 -342.5s-121.667 -190.5 -213 -252.5h289v-150z" />
    <glyph glyph-name="Iotadieresis" unicode="&#x3aa;" horiz-adv-x="569" 
d="M184 0v1464h201v-1464h-201zM522 1819c32 0 59.167 -11 81.5 -33s33.5 -48.667 33.5 -80c0 -32 -11.167 -58.833 -33.5 -80.5s-49.5 -32.5 -81.5 -32.5c-31.333 0 -57.5 10.833 -78.5 32.5s-31.5 48.5 -31.5 80.5s10.5 58.833 31.5 80.5s47.167 32.5 78.5 32.5zM49 1819
c32 0 58.833 -11 80.5 -33s32.5 -48.667 32.5 -80c0 -32 -10.833 -58.833 -32.5 -80.5s-48.5 -32.5 -80.5 -32.5c-31.333 0 -57.833 11 -79.5 33s-32.5 48.667 -32.5 80s10.833 58 32.5 80s48.167 33 79.5 33z" />
    <glyph glyph-name="Upsilondieresis" unicode="&#x3ab;" horiz-adv-x="1167" 
d="M709 655v-655h-199v655l-473 809h207l364 -639l365 639h207zM846 1819c31.333 0 57.833 -11 79.5 -33s32.5 -48.667 32.5 -80c0 -32 -10.833 -58.833 -32.5 -80.5s-48.167 -32.5 -79.5 -32.5c-32 0 -58.833 11 -80.5 33s-32.5 48.667 -32.5 80s10.833 58 32.5 80
s48.5 33 80.5 33zM371 1819c31.333 0 58.166 -11 80.499 -33s33.5 -48.667 33.5 -80s-11.167 -58 -33.5 -80s-49.166 -33 -80.499 -33c-32 0 -58.833 11 -80.5 33s-32.5 48.667 -32.5 80c0 32 10.833 58.833 32.5 80.5s48.5 32.5 80.5 32.5z" />
    <glyph glyph-name="alphatonos" unicode="&#x3ac;" horiz-adv-x="1192" 
d="M1112 -18c-89.333 0 -153.333 10.6641 -192 31.9971s-66.667 59 -84 113c-72.667 -98 -173 -147 -301 -147c-138 0 -248.333 48.833 -331 146.5s-124 232.167 -124 403.5c0 164.667 45.333 299.5 136 404.5s211.334 157.5 362.001 157.5
c99.333 0 188.666 -37 267.999 -111c24 42 54.5 71 91.5 87s91.167 24 162.5 24v-109c-34.667 -13.333 -58.667 -31.666 -72 -54.999s-20 -59.666 -20 -108.999v-540c0 -59.333 8.33301 -102.166 25 -128.499s43 -44.5 79 -54.5v-114zM817 269.997l-0.000976562 572
c-62.667 60 -131.667 90 -207 90c-104 0 -184.833 -36 -242.5 -108s-86.5 -169.333 -86.5 -292c0 -125.333 29 -221.833 87 -289.5s132 -101.5 222 -101.5c86.667 0 162.334 43 227.001 129zM824.999 1618l-178 -334h-158l111 334h225z" />
    <glyph glyph-name="epsilontonos" unicode="&#x3ad;" horiz-adv-x="956" 
d="M897 104c-124.667 -82.667 -258.335 -124 -401.002 -124c-131.333 0 -232.833 28 -304.5 84s-107.5 130.333 -107.5 223c0 120.667 77 209.334 231 266.001c-63.333 16 -113.166 44.667 -149.499 86s-54.5 87 -54.5 137c0 92.667 34.333 168.5 103 227.5
s164.667 88.5 288 88.5c108 0 224 -28 348 -84l-70 -154c-107.333 54.667 -204.333 82 -291 82c-54.667 0 -98.334 -13.333 -131.001 -40s-49 -63.334 -49 -110.001c0 -48 18.833 -85.5 56.5 -112.5s91.834 -40.5 162.501 -40.5c52.667 0 98.667 1.33301 138 4v-154
c-36 4 -87.333 6 -154 6c-71.333 0 -126.666 -16.833 -165.999 -50.5s-59 -79.5 -59 -137.5c0 -52 19.667 -92.667 59 -122s95.333 -44 168 -44c104 0 201.667 37.667 293 113zM742.999 1618l-178 -334h-157l110 334h225z" />
    <glyph glyph-name="etatonos" unicode="&#x3ae;" horiz-adv-x="1126" 
d="M983 -279l-188 -46.999v949c0 118 -18.667 199 -56 243s-92 66 -164 66c-46 0 -91.333 -14.333 -136 -43s-79.667 -62.334 -105 -101.001v-788h-191v1071h129l60 -133c76 102.667 178.333 154 307 154c112 0 197.333 -37.5 256 -112.5s88 -184.5 88 -328.5v-930z
M834 1618l-179 -334h-157l110 334h226z" />
    <glyph glyph-name="iotatonos" unicode="&#x3af;" horiz-adv-x="569" 
d="M483 -18c-220.667 0 -331 103 -331 309v780h192v-756c0 -108.667 46.333 -166.667 139 -174v-159zM489 1618l-178 -334h-157l110 334h225z" />
    <glyph glyph-name="upsilondieresistonos" unicode="&#x3b0;" horiz-adv-x="1128" 
d="M987 465c0 -172.667 -34.832 -296.333 -104.499 -371s-178.834 -112 -327.501 -112c-144 0 -250 38.667 -318 116s-102 198.333 -102 363v614h191v-624c0 -210.667 76.333 -316 229 -316c84.667 0 146.5 25 185.5 75s58.5 128.667 58.5 236v629h188v-610zM690.001 1618
l-119 -354h-114l57 354h176zM842.001 1518c32 0 58.998 -10.667 80.998 -32s33 -47.666 33 -78.999s-11.167 -58.333 -33.5 -81s-49.166 -34 -80.499 -34s-57.666 11.167 -78.999 33.5s-32 49.5 -32 81.5c0 31.333 10.5 57.666 31.5 78.999s47.5 32 79.5 32zM263.999 1518
c32 0 58.833 -10.667 80.5 -32s32.5 -47.666 32.5 -78.999c0 -32 -11 -59.167 -33 -81.5s-48.667 -33.5 -80 -33.5c-32 0 -58.667 11.167 -80 33.5s-32 49.5 -32 81.5c0 31.333 10.667 57.666 32 78.999s48 32 80 32z" />
    <glyph glyph-name="alpha" unicode="&#x3b1;" horiz-adv-x="1192" 
d="M1112 -18c-89.333 0 -153.333 10.6641 -192 31.9971s-66.667 59 -84 113c-72.667 -98 -173 -147 -301 -147c-138 0 -248.333 48.833 -331 146.5s-124 232.167 -124 403.5c0 164.667 45.333 299.5 136 404.5s211.334 157.5 362.001 157.5
c99.333 0 188.666 -37 267.999 -111c24 42 54.5 71 91.5 87s91.167 24 162.5 24v-109c-34.667 -13.333 -58.667 -31.666 -72 -54.999s-20 -59.666 -20 -108.999v-540c0 -59.333 8.33301 -102.166 25 -128.499s43 -44.5 79 -54.5v-114zM817 269.997l-0.000976562 572
c-62.667 60 -131.667 90 -207 90c-104 0 -184.833 -36 -242.5 -108s-86.5 -169.333 -86.5 -292c0 -125.333 29 -221.833 87 -289.5s132 -101.5 222 -101.5c86.667 0 162.334 43 227.001 129z" />
    <glyph glyph-name="beta" unicode="&#x3b2;" horiz-adv-x="1155" 
d="M711 848c117.333 -22.667 206.999 -69.834 268.999 -141.501s93 -160.5 93 -266.5c0 -134 -43.167 -244.167 -129.5 -330.5s-196.166 -129.5 -329.499 -129.5c-135.333 0 -238.333 35.333 -309 106l-69 -104h-93v1067c0 139.333 37.5 252 112.5 338s179.5 129 313.5 129
c115.333 0 209.5 -32.167 282.5 -96.5s109.5 -149.166 109.5 -254.499c0 -70 -23.167 -134.167 -69.5 -192.5s-106.5 -99.833 -180.5 -124.5zM329.999 909h162c83.333 0 150.5 23.5 201.5 70.5s76.5 107.5 76.5 181.5c0 60 -18.5 108.833 -55.5 146.5
s-86.833 56.5 -149.5 56.5c-74.667 0 -132.5 -26.5 -173.5 -79.5s-61.5 -128.833 -61.5 -227.5v-148zM329.999 236c28.667 -31.333 65.333 -56.333 110 -75s87.667 -28 129 -28c95.333 0 170.5 27.167 225.5 81.5s82.5 127.5 82.5 219.5c0 98.667 -33.333 178 -100 238
s-164 90 -292 90h-155v-526z" />
    <glyph glyph-name="gamma" unicode="&#x3b3;" horiz-adv-x="1112" 
d="M1092 1071l-427.998 -1030v-461h-195v445c-70.667 242.667 -134.834 437.334 -192.501 584.001s-102.167 234.834 -133.5 264.501s-69.333 44.5 -114 44.5v161c81.333 0 143.166 -9.5 185.499 -28.5s79.5 -51.667 111.5 -98s70.833 -133.666 116.5 -261.999
s91.5 -275.166 137.5 -440.499l309 821h203z" />
    <glyph glyph-name="delta" unicode="&#x3b4;" horiz-adv-x="1133" 
d="M588 1356c30 -23.333 99.168 -101 207.501 -233s176.5 -239.333 204.5 -322s42 -171.334 42 -266.001c0 -165.333 -42.833 -299.166 -128.5 -401.499s-204.5 -153.5 -356.5 -153.5c-152.667 0 -271.334 50.333 -356.001 151s-127 236.667 -127 408
c0 100 18.667 192 56 276s89.666 149.333 156.999 196s141 70 221 70c34.667 0 67.334 -3.33301 98.001 -10l-307 385v53h688v-153h-399zM842.001 539c0 159.333 -45 289 -135 389c-38.667 12 -81 18 -127 18c-98.667 0 -174.667 -37.333 -228 -112s-80 -173 -80 -295
c0 -269.333 95 -404 285 -404c92 0 162.5 37 211.5 111s73.5 171.667 73.5 293z" />
    <glyph glyph-name="epsilon" unicode="&#x3b5;" horiz-adv-x="956" 
d="M897 104c-124.667 -82.667 -258.335 -124 -401.002 -124c-131.333 0 -232.833 28 -304.5 84s-107.5 130.333 -107.5 223c0 120.667 77 209.334 231 266.001c-63.333 16 -113.166 44.667 -149.499 86s-54.5 87 -54.5 137c0 92.667 34.333 168.5 103 227.5
s164.667 88.5 288 88.5c108 0 224 -28 348 -84l-70 -154c-107.333 54.667 -204.333 82 -291 82c-54.667 0 -98.334 -13.333 -131.001 -40s-49 -63.334 -49 -110.001c0 -48 18.833 -85.5 56.5 -112.5s91.834 -40.5 162.501 -40.5c50.667 0 96.667 1.33301 138 4v-154
c-36 4 -87.333 6 -154 6c-71.333 0 -126.666 -16.833 -165.999 -50.5s-59 -79.5 -59 -137.5c0 -52 19.667 -92.667 59 -122s95.333 -44 168 -44c104 0 201.667 37.667 293 113z" />
    <glyph glyph-name="zeta" unicode="&#x3b6;" horiz-adv-x="907" 
d="M909 1456c-214 -229.333 -371.835 -423.334 -473.502 -582.001s-152.5 -306 -152.5 -442c0 -87.333 21.833 -153.833 65.5 -199.5s122.834 -72.5 237.501 -80.5c100.667 -7.33301 179 -35.166 235 -83.499s84 -114.166 84 -197.499
c0 -85.333 -31.667 -155.166 -95 -209.499s-143 -81.5 -239 -81.5c-44.667 0 -86.334 4.66699 -125.001 14l35 154c33.333 -12 66.333 -18 99 -18c42 0 76.333 11 103 33s40 52.667 40 92c0 36.667 -11.167 65.667 -33.5 87s-48.666 34.666 -78.999 39.999
s-76.833 10 -139.5 14c-121.333 3.33301 -217.833 41.166 -289.5 113.499s-107.5 171.833 -107.5 298.5c0 136 40.833 276.833 122.5 422.5s220.834 320.167 417.501 523.5h-397v155h692v-53z" />
    <glyph glyph-name="eta" unicode="&#x3b7;" horiz-adv-x="1126" 
d="M983 -279l-188 -46.999v949c0 118 -18.667 199 -56 243s-92 66 -164 66c-46 0 -91.333 -14.333 -136 -43s-79.667 -62.334 -105 -101.001v-788h-191v1071h129l60 -133c76 102.667 178.333 154 307 154c112 0 197.333 -37.5 256 -112.5s88 -184.5 88 -328.5v-930z" />
    <glyph glyph-name="theta" unicode="&#x3b8;" horiz-adv-x="1114" 
d="M561 1516c144.667 0 258.333 -66.167 341 -198.5s124 -319.5 124 -561.5c0 -253.333 -40.5 -446 -121.5 -578s-198.167 -198 -351.5 -198c-146 0 -260 65.333 -342 196s-123 317 -123 559c0 252.667 41 446 123 580s198.667 201 350 201zM828.999 854
c-3.33301 144.667 -27.834 265.5 -73.501 362.5s-113.167 145.5 -202.5 145.5c-163.333 0 -252.666 -169.333 -267.999 -508h544zM830.998 702h-548.001c8.66699 -379.333 101.334 -569 278.001 -569c174.667 0 264.667 189.667 270 569z" />
    <glyph glyph-name="iota" unicode="&#x3b9;" horiz-adv-x="569" 
d="M483 -18c-220.667 0 -331 103 -331 309v780h192v-756c0 -108.667 46.333 -166.667 139 -174v-159z" />
    <glyph glyph-name="kappa" unicode="&#x3ba;" horiz-adv-x="1116" 
d="M1075 0h-248l-331 485l-160 -178v-307h-191v1071h191v-530l442 530h242l-399 -450z" />
    <glyph glyph-name="lambda" unicode="&#x3bb;" horiz-adv-x="1085" 
d="M1063 0h-210.997l-272 868l-342 -868h-211l465 1090c-26.667 93.333 -52.334 161.333 -77.001 204s-65.334 64 -122.001 64c-34.667 0 -79 -12.333 -133 -37l-51 160c77.333 23.333 146.666 35 207.999 35c100.667 0 175 -27.5 223 -82.5s87.667 -130.167 119 -225.5z
" />
    <glyph glyph-name="mu" unicode="&#x3bc;" horiz-adv-x="1119" 
d="M325 18v-438h-190v1491h190v-623c0 -201.333 78.333 -302 235 -302c56 0 105.333 14.5 148 43.5s71.667 64.167 87 105.5v776h190v-1071h-190v148c-22.667 -50 -60 -90.5 -112 -121.5s-110.333 -46.5 -175 -46.5c-72 0 -133 12.667 -183 38z" />
    <glyph glyph-name="nu" unicode="&#x3bd;" horiz-adv-x="1020" 
d="M999 1071l-469 -1091h-49l-461 1091h213l281 -737l281 737h204z" />
    <glyph glyph-name="xi" unicode="&#x3be;" horiz-adv-x="942" 
d="M809 748l-174.001 -0.000976562c-86 0 -165.833 -30.833 -239.5 -92.5s-110.5 -144.167 -110.5 -247.5c0 -80 21.5 -141 64.5 -183s127.167 -67 252.5 -75c102 -6 181.5 -33 238.5 -81s85.5 -114 85.5 -198s-31.667 -153.5 -95 -208.5s-143 -82.5 -239 -82.5
c-52 0 -97.667 4.66699 -137 14l34 154c34.667 -12 71.667 -18 111 -18c42.667 0 77.167 11 103.5 33s39.5 52.667 39.5 92c0 44.667 -14.667 77.834 -44 99.501s-66.666 33.834 -111.999 36.501l-98 5c-124.667 3.33301 -224.334 39.333 -299.001 108
s-112 161.667 -112 279c0 102 28.667 191 86 267s137 132.333 239 169c-82.667 15.333 -148 51.166 -196 107.499s-72 124.166 -72 203.499c0 118 41.333 211.833 124 281.5s190.334 104.5 323.001 104.5c106 0 207.667 -20 305 -60l-62 -160
c-74.667 42.667 -158.667 64 -252 64c-73.333 0 -131.166 -18.5 -173.499 -55.5s-63.5 -88.833 -63.5 -155.5c0 -77.333 29.167 -137.666 87.5 -180.999s139.166 -65 242.499 -65h143v-155z" />
    <glyph glyph-name="omicron" unicode="&#x3bf;" horiz-adv-x="1116" 
d="M559 1092c153.333 0 272.168 -49.5 356.501 -148.5s126.5 -233.833 126.5 -404.5c0 -176.667 -44.333 -314 -133 -412s-205.334 -147 -350.001 -147c-152 0 -270.833 50 -356.5 150s-128.5 236.333 -128.5 409c0 164.667 44.667 298 134 400s206.333 153 351 153z
M559.002 135c89.333 0 158.833 37 208.5 111s74.5 171.667 74.5 293c0 264.667 -94.333 397 -283 397c-88.667 0 -158.667 -36 -210 -108s-77 -168.333 -77 -289c0 -269.333 95.667 -404 287 -404z" />
    <glyph glyph-name="pi" unicode="&#x3c0;" horiz-adv-x="1232" 
d="M982 0h-193v911h-337v-911h-193v911h-167v160h1048v-160h-158v-911z" />
    <glyph glyph-name="rho" unicode="&#x3c1;" horiz-adv-x="1169" 
d="M129 -420l0.00195312 876.999c0 218.667 42.667 379.167 128 481.5s199.666 153.5 342.999 153.5c152.667 0 272 -50.667 358 -152s129 -235.666 129 -402.999c0 -165.333 -43.333 -299.5 -130 -402.5s-204.334 -154.5 -353.001 -154.5c-120 0 -215 27.667 -285 83v-483
h-190zM324.002 216.999c64 -52 143.001 -78.001 237.001 -78.001c105.333 0 186 33.333 242 100s84 163 84 289c0 128.667 -26 228.834 -78 300.501s-121.667 107.5 -209 107.5c-86.667 0 -154.334 -38.833 -203.001 -116.5s-73 -179.5 -73 -305.5v-297z" />
    <glyph glyph-name="sigma1" unicode="&#x3c2;" horiz-adv-x="940" 
d="M825 864c-67.333 45.333 -140.998 68.001 -220.998 68.001c-102 0 -182.833 -36.5 -242.5 -109.5s-89.5 -172.5 -89.5 -298.5c0 -189.333 114 -306.666 342 -351.999c110 -22 190.833 -56.5 242.5 -103.5s77.5 -112.833 77.5 -197.5s-31.333 -154.334 -94 -209.001
s-141.334 -82 -236.001 -82c-46 0 -88.333 4.66699 -127 14l33 154c33.333 -12 66.666 -18 99.999 -18c43.333 0 77.833 10.833 103.5 32.5s38.5 52.5 38.5 92.5c0 41.333 -13 75 -39 101s-84.667 45.333 -176 58c-147.333 19.333 -261.333 73.666 -342 162.999
s-121 205 -121 347c0 174.667 49.333 313 148 415s229.334 153 392.001 153c113.333 0 211.666 -30.333 294.999 -91z" />
    <glyph glyph-name="sigma" unicode="&#x3c3;" horiz-adv-x="1167" 
d="M1122 913l-319 0.000976562c78 -58.667 138.5 -125.834 181.5 -201.501s64.5 -151.834 64.5 -228.501c0 -144 -43.667 -263.833 -131 -359.5s-205.666 -143.5 -354.999 -143.5c-150.667 0 -269.834 48.5 -357.501 145.5s-131.5 225.167 -131.5 384.5
c0 168.667 48.667 304.334 146 407.001s226 154 386 154h516v-158zM848 481.001c0 80.667 -22.167 160.166 -66.5 238.499s-101.5 142.833 -171.5 193.5c-108 0 -191.333 -34.5 -250 -103.5s-88 -164.833 -88 -287.5c0 -117.333 26.167 -211.166 78.5 -281.499
s125.833 -105.5 220.5 -105.5c89.333 0 157.833 32.333 205.5 97s71.5 147.667 71.5 249z" />
    <glyph glyph-name="tau" unicode="&#x3c4;" horiz-adv-x="905" 
d="M862 911h-364.001v-608c0 -54.667 9.16699 -95 27.5 -121s48.5 -39 90.5 -39c30.667 0 66.334 8.33301 107.001 25l25 -160c-57.333 -17.333 -113.333 -26 -168 -26c-88 0 -155.5 25.167 -202.5 75.5s-70.5 122.5 -70.5 216.5v637h-270v160h825v-160z" />
    <glyph glyph-name="upsilon" unicode="&#x3c5;" horiz-adv-x="1128" 
d="M991 467c0 -323.333 -146 -484.998 -438 -484.998c-140.667 0 -245.167 39.667 -313.5 119s-102.5 200.666 -102.5 363.999v606h191v-622c0 -209.333 77 -314 231 -314c84.667 0 146.167 24.667 184.5 74s57.5 127.666 57.5 234.999v627h190v-604z" />
    <glyph glyph-name="phi" unicode="&#x3c6;" horiz-adv-x="1446" 
d="M629 131l0.000976562 565.001c0 135.333 28 235.5 84 300.5s132.333 97.5 229 97.5c127.333 0 229.833 -51.833 307.5 -155.5s116.5 -233.5 116.5 -389.5c0 -158.667 -47.833 -289.5 -143.5 -392.5s-230.834 -161.167 -405.501 -174.5v-402h-190v402
c-178 9.33301 -314.333 62.5 -409 159.5s-142 224.5 -142 382.5c0 119.333 27 229.166 81 329.499s131.333 180.5 232 240.5l103 -131c-149.333 -105.333 -224 -254.333 -224 -447c0 -107.333 32.667 -196 98 -266s153 -109.667 263 -119zM815.001 129.001
c112.667 10 201 50.5 265 121.5s96 162.833 96 275.5c0 117.333 -22 216 -66 296s-100 120 -168 120c-84.667 0 -127 -71 -127 -213v-600z" />
    <glyph glyph-name="chi" unicode="&#x3c7;" horiz-adv-x="1042" 
d="M1022 0h-236l-274 410l-266 -410h-226l398 549l-365 522h223l240 -377l254 377h215l-377 -514z" />
    <glyph glyph-name="psi" unicode="&#x3c8;" horiz-adv-x="1475" 
d="M1341 537c0 -165.333 -42.667 -295.833 -128 -391.5s-211 -150.167 -377 -163.5v-402h-191v402c-341.333 23.333 -512 205.333 -512 546v543h191v-547c0 -112.667 27.333 -203.667 82 -273s135 -109.333 241 -120v940h187v-942c106 10.667 186 50 240 118
s81 159.667 81 275v549h186v-534z" />
    <glyph glyph-name="omega" unicode="&#x3c9;" horiz-adv-x="1556" 
d="M1178 1100c199.333 -165.333 299 -370.33 299 -614.997c0 -157.333 -35.333 -280.833 -106 -370.5s-171.334 -134.5 -302.001 -134.5c-132 0 -229 65.333 -291 196c-67.333 -130.667 -165 -196 -293 -196c-128.667 0 -228.334 43.833 -299.001 131.5
s-106 208.167 -106 361.5c0 252 101 461 303 627l127 -117c-76 -63.333 -134.333 -139.333 -175 -228s-61 -180 -61 -274c0 -111.333 19.667 -196.833 59 -256.5s94.333 -89.5 165 -89.5c29.333 0 55.833 6.66699 79.5 20s47.667 39.166 72 77.499s36.5 63.166 36.5 74.499
v199c0 106.667 -2.66699 196 -8 268h196c-5.33301 -64.667 -8 -152 -8 -262v-182c26.667 -72.667 56.334 -123.334 89.001 -152.001s75.334 -43 128.001 -43c132.667 0 199 114 199 342c0 199.333 -79.333 367.333 -238 504z" />
    <glyph glyph-name="iotadieresis" unicode="&#x3ca;" horiz-adv-x="569" 
d="M483 -18c-220.667 0 -331 103 -331 309v780h192v-756c0 -108.667 46.333 -166.667 139 -174v-159zM489 1518c32 0 58.833 -10.667 80.5 -32s32.5 -47.666 32.5 -78.999c0 -32 -10.667 -59.167 -32 -81.5s-48.333 -33.5 -81 -33.5c-31.333 0 -57.833 11.167 -79.5 33.5
s-32.5 49.5 -32.5 81.5c0 31.333 10.833 57.666 32.5 78.999s48.167 32 79.5 32zM16 1518c32 0 58.5 -10.667 79.5 -32s31.5 -47.666 31.5 -78.999c0 -32 -10.5 -59.167 -31.5 -81.5s-47.5 -33.5 -79.5 -33.5s-58.667 11.167 -80 33.5s-32 49.5 -32 81.5
c0 31.333 10.833 57.666 32.5 78.999s48.167 32 79.5 32z" />
    <glyph glyph-name="upsilondieresis" unicode="&#x3cb;" horiz-adv-x="1128" 
d="M987 465c0 -172.667 -34.832 -296.333 -104.499 -371s-178.834 -112 -327.501 -112c-144 0 -250 38.667 -318 116s-102 198.333 -102 363v614h191v-624c0 -210.667 76.333 -316 229 -316c84.667 0 146.5 25 185.5 75s58.5 128.667 58.5 236v629h188v-610zM799.001 1518
c31.333 0 57.833 -10.667 79.5 -32s32.5 -47.666 32.5 -78.999c0 -32 -10.667 -59.167 -32 -81.5s-48 -33.5 -80 -33.5c-31.333 0 -58 11.167 -80 33.5s-33 49.5 -33 81.5c0 31.333 10.833 57.666 32.5 78.999s48.5 32 80.5 32zM326.001 1518
c31.333 0 57.833 -10.667 79.5 -32s32.5 -47.666 32.5 -78.999c0 -32 -10.833 -59.167 -32.5 -81.5s-48.167 -33.5 -79.5 -33.5c-32 0 -58.833 11.167 -80.5 33.5s-32.5 49.5 -32.5 81.5c0 31.333 10.833 57.666 32.5 78.999s48.5 32 80.5 32z" />
    <glyph glyph-name="omicrontonos" unicode="&#x3cc;" horiz-adv-x="1116" 
d="M559 1092c153.333 0 272.168 -49.5 356.501 -148.5s126.5 -233.833 126.5 -404.5c0 -176.667 -44.333 -314 -133 -412s-205.334 -147 -350.001 -147c-152 0 -270.833 50 -356.5 150s-128.5 236.333 -128.5 409c0 164.667 44.667 298 134 400s206.333 153 351 153z
M559.002 135c89.333 0 158.833 37 208.5 111s74.5 171.667 74.5 293c0 264.667 -94.333 397 -283 397c-88.667 0 -158.667 -36 -210 -108s-77 -168.333 -77 -289c0 -269.333 95.667 -404 287 -404zM799.002 1618l-178 -334h-158l117 334h219z" />
    <glyph glyph-name="upsilontonos" unicode="&#x3cd;" horiz-adv-x="1128" 
d="M991 467c0 -323.333 -146 -484.998 -438 -484.998c-140.667 0 -245.167 39.667 -313.5 119s-102.5 200.666 -102.5 363.999v606h191v-622c0 -209.333 77 -314 231 -314c84.667 0 146.167 24.667 184.5 74s57.5 127.666 57.5 234.999v627h190v-604zM809 1618l-178 -334
h-162l102 334h238z" />
    <glyph glyph-name="omegatonos" unicode="&#x3ce;" horiz-adv-x="1556" 
d="M1178 1100c98 -81.333 172.333 -174.999 223 -280.999s76 -217.333 76 -334c0 -158 -35.333 -281.667 -106 -371s-171.334 -134 -302.001 -134c-132 0 -229 65.333 -291 196c-67.333 -130.667 -165 -196 -293 -196c-128.667 0 -228.334 43.833 -299.001 131.5
s-106 208.167 -106 361.5c0 252 101 461 303 627l127 -117c-76 -63.333 -134.333 -139.333 -175 -228s-61 -180 -61 -274c0 -111.333 19.667 -196.833 59 -256.5s94.333 -89.5 165 -89.5c30 0 56.833 6.5 80.5 19.5s47.5 39 71.5 78s36 63.833 36 74.5v199
c0 106.667 -2.66699 196 -8 268h196c-5.33301 -64.667 -8 -152 -8 -262v-182c26.667 -72.667 56.334 -123.334 89.001 -152.001s75.334 -43 128.001 -43c132.667 0 199 114 199 342c0 198 -79.333 366 -238 504zM1032 1618l-178 -334h-158l111 334h225z" />
    <glyph glyph-name="afii10023" unicode="&#x401;" horiz-adv-x="1112" 
d="M350 1284v-405h484v-170h-484v-529h664v-180h-864v1464h874v-180h-674zM799 1812c29.333 0 55.333 -10.5 78 -31.5s34 -47.833 34 -80.5c0 -31.333 -10.833 -58 -32.5 -80s-48.167 -33 -79.5 -33c-33.333 0 -60.5 11.5 -81.5 34.5s-31.5 49.167 -31.5 78.5
c0 36 12.167 63.667 36.5 83s49.833 29 76.5 29zM399 1812c31.333 0 58 -10.833 80 -32.5s33 -48.167 33 -79.5c0 -30.667 -10.667 -57.167 -32 -79.5s-48.333 -33.5 -81 -33.5s-59.5 11.5 -80.5 34.5s-31.5 49.167 -31.5 78.5c0 30.667 11 57 33 79s48.333 33 79 33z" />
    <glyph glyph-name="afii10051" unicode="&#x402;" horiz-adv-x="1493" 
d="M1421 436c0 -92 -17.667 -171.501 -53 -238.501s-84.833 -118.333 -148.5 -154s-132.834 -53.5 -207.501 -53.5c-46 0 -88.333 2.66699 -127 8v166c44.667 -5.33301 80 -8 106 -8c68.667 0 123 23.333 163 70s60 112.667 60 198v29c0 90.667 -26.5 160.334 -79.5 209.001
s-128.167 73 -225.5 73c-84.667 0 -167 -8 -247 -24v-711h-199v1288h-406v176h1078v-176h-473v-414c76.667 16.667 158.334 25 245.001 25c163.333 0 289.833 -38.833 379.5 -116.5s134.5 -188.167 134.5 -331.5v-15z" />
    <glyph glyph-name="afii10052" unicode="&#x403;" horiz-adv-x="1065" 
d="M1004 1284h-652v-1284h-202v1464h854v-180zM868 1919l-225 -334h-139l168 334h196z" />
    <glyph glyph-name="afii10053" unicode="&#x404;" horiz-adv-x="1198" 
d="M1145 147c-115.333 -114.667 -265 -172 -449 -172c-193.333 0 -344.333 69.667 -453 209s-163 320.333 -163 543c0 214 57.833 394.833 173.5 542.5s273.5 221.5 473.5 221.5c130 0 249.333 -26.667 358 -80l-67 -170c-89.333 50.667 -189 76 -299 76
c-115.333 0 -210 -40.333 -284 -121s-121.333 -194 -142 -340h545v-162h-555c6.66699 -166.667 48.667 -299 126 -397s180 -147 308 -147c134 0 239.667 49.667 317 149z" />
    <glyph glyph-name="afii10054" unicode="&#x405;" horiz-adv-x="993" 
d="M88 68l73.9922 184.004c38.667 -28.667 85.334 -51.834 140.001 -69.501s104.334 -26.5 149.001 -26.5c74.667 0 136.334 20.5 185.001 61.5s73 96.167 73 165.5c0 52.667 -12.167 96.5 -36.5 131.5s-54.333 63.167 -90 84.5s-84.5 46 -146.5 74
c-76 34 -137.333 66.167 -184 96.5s-86.334 73 -119.001 128s-49 125.833 -49 212.5c0 115.333 39.833 207.666 119.5 276.999s177.834 104 294.501 104c160.667 0 273.334 -26.667 338.001 -80l-60 -174c-33.333 24 -77.166 44 -131.499 60s-101.166 24 -140.499 24
c-65.333 0 -118.166 -19 -158.499 -57s-60.5 -88.667 -60.5 -152c0 -50.667 11.5 -92.834 34.5 -126.501s51.667 -60.667 86 -81s81.5 -43.833 141.5 -70.5c77.333 -34 139.833 -66.667 187.5 -98s88.334 -76.5 122.001 -135.5s50.5 -135.5 50.5 -229.5
c0 -120.667 -47 -216.834 -141 -288.501s-208.667 -107.5 -344 -107.5c-130 0 -241.333 31 -334 93z" />
    <glyph glyph-name="afii10055" unicode="&#x406;" horiz-adv-x="569" 
d="M184 0v1464h201v-1464h-201z" />
    <glyph glyph-name="afii10056" unicode="&#x407;" horiz-adv-x="569" 
d="M184 0v1464h201v-1464h-201zM483 1812c30.667 0 57.167 -10.5 79.5 -31.5s33.5 -47.167 33.5 -78.5c0 -29.333 -10.5 -55.833 -31.5 -79.5s-48.167 -35.5 -81.5 -35.5c-29.333 0 -55.333 11.167 -78 33.5s-34 49.5 -34 81.5c0 29.333 10.833 55 32.5 77
s48.167 33 79.5 33zM86 1812c30.667 0 56.833 -10.667 78.5 -32s32.5 -47.333 32.5 -78c0 -32.667 -11.5 -60 -34.5 -82s-48.5 -33 -76.5 -33c-30.667 0 -57.5 11.167 -80.5 33.5s-34.5 49.5 -34.5 81.5c0 29.333 10.833 55 32.5 77s49.167 33 82.5 33z" />
    <glyph glyph-name="afii10057" unicode="&#x408;" horiz-adv-x="961" 
d="M45 293l174.001 -0.000976562c16.667 -88.667 70 -133 160 -133c94.667 0 159 20.833 193 62.5s51 147.167 51 316.5v925h198v-917c0 -215.333 -34.833 -363.666 -104.5 -444.999s-181.5 -122 -335.5 -122c-94.667 0 -172.834 28 -234.501 84s-95.5 132.333 -101.5 229z
" />
    <glyph glyph-name="afii10058" unicode="&#x409;" horiz-adv-x="1989" 
d="M1198 909c73.333 7.33301 130.004 10.999 170.004 10.999c169.333 0 301.166 -39.333 395.499 -118s141.5 -191 141.5 -337c0 -144 -47.833 -257.5 -143.5 -340.5s-219.834 -124.5 -372.501 -124.5h-388v1288h-270c-45.333 -251.333 -97 -474.5 -155 -669.5
s-115.5 -335.5 -172.5 -421.5s-113.667 -142.333 -170 -169s-123.833 -40 -202.5 -40v182c53.333 0 99.666 14.833 138.999 44.5s84.833 99.834 136.5 210.501s98.667 249.5 141 416.5s89.166 374.5 140.499 622.5h610v-555zM1196 169.999
c54.667 -6.66699 105.333 -10 152 -10c237.333 0 356 103 356 309c0 93.333 -30 164.5 -90 213.5s-144.667 73.5 -254 73.5c-49.333 0 -104 -3.66699 -164 -11v-575z" />
    <glyph glyph-name="afii10059" unicode="&#x40a;" horiz-adv-x="1870" 
d="M1079 909c73.333 7.33301 130 11 170 11c169.333 0 301.166 -39.333 395.499 -118s141.5 -191 141.5 -337c0 -144 -47.667 -257.5 -143 -340.5s-219.666 -124.5 -372.999 -124.5h-387v709h-537v-709h-196v1464h196v-585h537v585h196v-555zM1077 170
c54.667 -6.66699 105.333 -10 152 -10c237.333 0 356 103 356 309c0 92 -29.667 162.833 -89 212.5s-144.333 74.5 -255 74.5c-49.333 0 -104 -3.66699 -164 -11v-575z" />
    <glyph glyph-name="afii10060" unicode="&#x40b;" horiz-adv-x="1520" 
d="M1393 0h-203.002v457c0 90.667 -25.667 159.667 -77 207s-125.333 71 -222 71c-68 0 -144.333 -8 -229 -24v-711h-199v1288h-406v176h1073v-176h-468v-414c78.667 16.667 154.334 25 227.001 25c158.667 0 282.334 -38.5 371.001 -115.5s133 -186.5 133 -328.5v-455z" />
    <glyph glyph-name="afii10061" unicode="&#x40c;" horiz-adv-x="1253" 
d="M1161 -6c-10 -2.66699 -34.667 -3.99902 -74 -3.99902c-83.333 0 -144.333 21.5 -183 64.5s-67 116.833 -85 221.5c-24 143.333 -73.333 247.833 -148 313.5s-179 98.5 -313 98.5h-8v-688h-200v1464h200v-606h19c124.667 0 224.834 28.833 300.501 86.5
s122.834 141.5 141.501 251.5c16.667 98 43.834 168.667 81.501 212s96.5 65 176.5 65c26 0 49.333 -1.66699 70 -5v-172c-4.66699 1.33301 -18.334 2 -41.001 2c-25.333 0 -44.833 -8.5 -58.5 -25.5s-26.5 -54.833 -38.5 -113.5
c-18.667 -94 -58.334 -175.167 -119.001 -243.5s-137 -115.5 -229 -141.5c201.333 -70 323.666 -220 366.999 -450c12.667 -66.667 26.5 -109.334 41.5 -128.001s33.833 -28 56.5 -28c14 0 28.333 1.33301 43 4v-178zM907 1919l-225 -334h-139l168 334h196z" />
    <glyph glyph-name="afii10062" unicode="&#x40e;" horiz-adv-x="1182" 
d="M1169 1464c-86 -325.333 -186.332 -605.167 -300.999 -839.5s-227.834 -399.333 -339.501 -495s-243.5 -143.5 -395.5 -143.5v194c161.333 0 289 76.667 383 230l-502 1054h228l397 -893c136.667 278 241 575.667 313 893h217zM973.001 1888
c-44.667 -204.667 -164.334 -307 -359.001 -307c-194 0 -313.333 102.333 -358 307l170 39c24.667 -136.667 87.334 -205 188.001 -205c113.333 0 179 67.667 197 203z" />
    <glyph glyph-name="afii10145" unicode="&#x40f;" horiz-adv-x="1300" 
d="M1151 0h-408v-420h-186v420h-407v1464h200v-1286h600v1286h201v-1464z" />
    <glyph glyph-name="afii10017" unicode="&#x410;" horiz-adv-x="1217" 
d="M985 0l-100 309h-545l-109 -309h-223l594 1485h53l553 -1485h-223zM621 1102l-228 -645h434z" />
    <glyph glyph-name="afii10018" unicode="&#x411;" horiz-adv-x="1165" 
d="M350 885c74.667 6.66699 138.332 10 190.999 10c172.667 0 305.834 -38 399.501 -114s140.5 -185.333 140.5 -328c0 -142 -47.5 -253 -142.5 -333s-220.833 -120 -377.5 -120h-411v1464h829v-174h-629v-405zM349.998 170c91.333 -6.66699 147.332 -10 167.999 -10
c234.667 0 352 99.667 352 299c0 182.667 -114 274 -342 274c-59.333 0 -118.666 -3.33301 -177.999 -10v-553z" />
    <glyph glyph-name="afii10019" unicode="&#x412;" horiz-adv-x="1163" 
d="M567 0l-417 0.00195312v1464c166 10 294.333 15 385 15c141.333 0 252.333 -30.833 333 -92.5s121 -151.834 121 -270.501c0 -66 -25.167 -127.333 -75.5 -184s-106.5 -92.334 -168.5 -107.001c222.667 -49.333 334 -183 334 -401c0 -129.333 -47 -232.333 -141 -309
s-217.667 -115 -371 -115zM350 1305l-0.000976562 -420c41.333 -4 93.333 -6 156 -6c190 0 285 77 285 231c0 135.333 -87.667 203 -263 203c-49.333 0 -108.666 -2.66699 -177.999 -8zM349.999 729.002v-559.001c74.667 -6.66699 127.334 -10 158.001 -10
c121.333 0 211.666 22.833 270.999 68.5s89 121.167 89 226.5c0 98.667 -28.5 169.834 -85.5 213.501s-138.833 65.5 -245.5 65.5c-6 0 -68.333 -1.66699 -187 -5z" />
    <glyph glyph-name="afii10020" unicode="&#x413;" horiz-adv-x="1065" 
d="M1004 1284h-652v-1284h-202v1464h854v-180z" />
    <glyph glyph-name="afii10021" unicode="&#x414;" horiz-adv-x="1415" 
d="M1370 -420h-182v420h-977v-420h-182v588h86c94 124 171.667 249.833 233 377.5s110.5 255.167 147.5 382.5s80.167 306 129.5 536h589v-1296h156v-588zM1022 168l0.000976562 1128h-260c-88.667 -468.667 -235.334 -844.667 -440.001 -1128h700z" />
    <glyph glyph-name="afii10022" unicode="&#x415;" horiz-adv-x="1112" 
d="M350 1284v-405h484v-170h-484v-529h664v-180h-864v1464h874v-180h-674z" />
    <glyph glyph-name="afii10024" unicode="&#x416;" horiz-adv-x="1829" 
d="M1741 -6c-10.667 -2.66699 -33.334 -4.00195 -68.001 -4.00195c-81.333 0 -140.666 21.5 -177.999 64.5s-64.666 117.833 -81.999 224.5c-24 149.333 -67.5 255.5 -130.5 318.5s-151.167 94.5 -264.5 94.5v-692h-197v692c-119.333 0 -211.5 -31.833 -276.5 -95.5
s-109.167 -169.5 -132.5 -317.5c-16.667 -103.333 -43.834 -177.333 -81.501 -222s-95.167 -67 -172.5 -67c-36.667 0 -60 1.33301 -70 4v178c15.333 -2.66699 29.666 -4 42.999 -4c30 0 52 14.333 66 43s24.667 66.334 32 113.001c20 117.333 56.833 211.5 110.5 282.5
s126.834 125.5 219.501 163.5c-174.667 45.333 -279.667 175 -315 389c-7.33301 44 -16.833 78.167 -28.5 102.5s-33.5 36.5 -65.5 36.5c-24 0 -38.667 -0.666992 -44 -2v172c22 3.33301 44.667 5 68 5c79.333 0 138.166 -22.167 176.499 -66.5s65.5 -115.166 81.5 -212.499
c19.333 -118 59.833 -203.833 121.5 -257.5s150.834 -80.5 267.501 -80.5v608h197v-608c112.667 0 200 27.5 262 82.5s102.333 140.167 121 255.5c16 98 42.667 169 80 213s95.333 66 174 66c23.333 0 45.666 -1.66699 66.999 -5v-172c-5.33301 1.33301 -20.333 2 -45 2
c-21.333 0 -39.166 -8.33301 -53.499 -25s-27.166 -54.667 -38.499 -114c-18 -96 -54.667 -177.833 -110 -245.5s-125 -114.167 -209 -139.5c96.667 -40 172.167 -95.167 226.5 -165.5s91.5 -165.166 111.5 -284.499c6.66699 -44.667 16.5 -81.834 29.5 -111.501
s34.5 -44.5 64.5 -44.5c13.333 0 27.666 1.33301 42.999 4v-178z" />
    <glyph glyph-name="afii10025" unicode="&#x417;" horiz-adv-x="1075" 
d="M688 791c98 -26 172.998 -70.501 224.998 -133.501s78 -139.5 78 -229.5c0 -139.333 -48 -249.666 -144 -330.999s-226 -122 -390 -122c-170 0 -304.667 32.333 -404 97l74 182c104 -71.333 219.333 -107 346 -107c96.667 0 173.334 25 230.001 75s85 116 85 198
c0 91.333 -32.167 162.333 -96.5 213s-152.833 76 -265.5 76c-34 0 -75.667 -1.33301 -125 -4v167c52.667 -2.66699 100.334 -4 143.001 -4c94 0 168.833 22 224.5 66s83.5 104 83.5 180c0 66.667 -24.167 118.834 -72.5 156.501s-111.833 56.5 -190.5 56.5
c-100.667 0 -207.667 -30.667 -321 -92l-62 166c121.333 60 252.666 90 393.999 90c138.667 0 247.334 -32.833 326.001 -98.5s118 -159.167 118 -280.5c0 -68 -23.5 -132.333 -70.5 -193s-108.833 -103.334 -185.5 -128.001z" />
    <glyph glyph-name="afii10026" unicode="&#x418;" horiz-adv-x="1376" 
d="M1227 0h-201v1051l-823 -1071h-53v1484h200v-1050l824 1071h53v-1485z" />
    <glyph glyph-name="afii10027" unicode="&#x419;" horiz-adv-x="1376" 
d="M1227 0h-201v1051l-823 -1071h-53v1484h200v-1050l824 1071h53v-1485zM1085 1888c-44.667 -204.667 -164.002 -307 -358.002 -307s-313.333 102.333 -358 307l170 39c24.667 -136.667 87.334 -205 188.001 -205c112.667 0 178.334 67.667 197.001 203z" />
    <glyph glyph-name="afii10028" unicode="&#x41a;" horiz-adv-x="1253" 
d="M1161 -6c-10 -2.66699 -34.667 -3.99902 -74 -3.99902c-83.333 0 -144.333 21.5 -183 64.5s-67 116.833 -85 221.5c-24 143.333 -73.333 247.833 -148 313.5s-179 98.5 -313 98.5h-8v-688h-200v1464h200v-606h19c124.667 0 224.834 28.833 300.501 86.5
s122.834 141.5 141.501 251.5c16.667 98 43.834 168.667 81.501 212s96.5 65 176.5 65c26 0 49.333 -1.66699 70 -5v-172c-4.66699 1.33301 -18.334 2 -41.001 2c-25.333 0 -44.833 -8.5 -58.5 -25.5s-26.5 -54.833 -38.5 -113.5
c-18.667 -94 -58.334 -175.167 -119.001 -243.5s-137 -115.5 -229 -141.5c201.333 -70 323.666 -220 366.999 -450c12.667 -66.667 26.5 -109.334 41.5 -128.001s33.833 -28 56.5 -28c14 0 28.333 1.33301 43 4v-178z" />
    <glyph glyph-name="afii10029" unicode="&#x41b;" horiz-adv-x="1376" 
d="M1227 0h-200.999v1288h-324c-20.667 -192 -47.167 -369.667 -79.5 -533s-73.833 -300.5 -124.5 -411.5s-97.834 -190.167 -141.501 -237.5s-90 -79.166 -139 -95.499s-111.167 -24.5 -186.5 -24.5v188c46 0 85.5 8.16699 118.5 24.5s67.667 49.666 104 99.999
s76 136.833 119 259.5s77.833 259.167 104.5 409.5s50.667 315.833 72 496.5h678v-1464z" />
    <glyph glyph-name="afii10030" unicode="&#x41c;" horiz-adv-x="1522" 
d="M1282 0l-176 946l-324 -966h-51l-319 966l-172 -946h-191l285 1464h88l340 -1067l338 1067h86l287 -1464h-191z" />
    <glyph glyph-name="afii10031" unicode="&#x41d;" horiz-adv-x="1339" 
d="M989 0v709h-639v-709h-200v1464h200v-585h639v585h201v-1464h-201z" />
    <glyph glyph-name="afii10032" unicode="&#x41e;" horiz-adv-x="1380" 
d="M80 745c0 212.667 53.165 390.167 159.498 532.5s249.833 213.5 430.5 213.5c204.667 0 360.834 -66.333 468.501 -199s161.5 -315 161.5 -547c0 -238.667 -54.167 -426.667 -162.5 -564s-264.166 -206 -467.499 -206c-186.667 0 -331.667 72 -435 216
s-155 328.667 -155 554zM290.998 745c0 -169.333 32.834 -309.833 98.501 -421.5s159.167 -167.5 280.5 -167.5c137.333 0 241.666 51.167 312.999 153.5s107 247.5 107 435.5c0 377.333 -140 566 -420 566c-121.333 0 -214.833 -49.5 -280.5 -148.5
s-98.5 -238.167 -98.5 -417.5z" />
    <glyph glyph-name="afii10033" unicode="&#x41f;" horiz-adv-x="1300" 
d="M1151 0h-201v1284h-600v-1284h-200v1464h1001v-1464z" />
    <glyph glyph-name="afii10034" unicode="&#x420;" horiz-adv-x="1143" 
d="M350 563l-0.000976562 -563h-200v1464c126 7.33301 217.333 11 274 11c426 0 639 -142 639 -426c0 -329.333 -188.333 -494 -565 -494c-31.333 0 -80.666 2.66699 -147.999 8zM349.999 1284v-541l133 -10c248.667 0 373 97.667 373 293c0 178.667 -132.333 268 -397 268
c-34.667 0 -71 -3.33301 -109 -10z" />
    <glyph glyph-name="afii10035" unicode="&#x421;" horiz-adv-x="1206" 
d="M1085 1411l-67.001 -172c-63.333 48 -163.666 72 -300.999 72c-134 0 -238.5 -57.167 -313.5 -171.5s-112.5 -255.166 -112.5 -422.499c0 -158.667 38 -291.834 114 -399.501s180.667 -161.5 314 -161.5c136 0 241 48.333 315 145l111 -154
c-116.667 -114.667 -266.334 -172 -449.001 -172c-193.333 0 -344.333 69.667 -453 209s-163 320.333 -163 543c0 213.333 57.5 394 172.5 542s267.833 222 458.5 222c156.667 0 281.334 -26.667 374.001 -80z" />
    <glyph glyph-name="afii10036" unicode="&#x422;" horiz-adv-x="1268" 
d="M723 1284v-1284h-201v1284h-465v180h1153v-180h-487z" />
    <glyph glyph-name="afii10037" unicode="&#x423;" horiz-adv-x="1182" 
d="M1169 1464c-86 -325.333 -186.332 -605.167 -300.999 -839.5s-227.834 -399.333 -339.501 -495s-243.5 -143.5 -395.5 -143.5v194c161.333 0 289 76.667 383 230l-502 1054h228l397 -893c136.667 278 241 575.667 313 893h217z" />
    <glyph glyph-name="afii10038" unicode="&#x424;" horiz-adv-x="1511" 
d="M854 1325c175.333 -8 316.5 -65.167 423.5 -171.5s160.5 -239.5 160.5 -399.5c0 -163.333 -52.667 -301.5 -158 -414.5s-247.333 -173.5 -426 -181.5v-178h-197v178c-174.667 8 -315.5 65.667 -422.5 173s-160.5 241.333 -160.5 402c0 162.667 52.5 300 157.5 412
s246.833 172 425.5 180v170h197v-170zM852 311c122.667 5.33301 218.5 48.168 287.5 128.501s103.5 183.166 103.5 308.499c0 118.667 -34.667 217.667 -104 297s-165 121.333 -287 126v-860zM659 311.002v859.998c-122.667 -4.66699 -218.5 -46.667 -287.5 -126
s-103.5 -181.333 -103.5 -306c0 -119.333 34.667 -219.166 104 -299.499s165 -123.166 287 -128.499z" />
    <glyph glyph-name="afii10039" unicode="&#x425;" horiz-adv-x="1155" 
d="M924 0l-365 588l-336 -588h-203l433 760l-398 706l199 -2l311 -553l346 553h201l-455 -708l478 -756h-211z" />
    <glyph glyph-name="afii10040" unicode="&#x426;" horiz-adv-x="1333" 
d="M1288 -420h-182v420h-956v1464h200v-1286h578v1286h200v-1286h160v-598z" />
    <glyph glyph-name="afii10041" unicode="&#x427;" horiz-adv-x="1223" 
d="M1073 0l-198.999 0.000976562v590c-94.667 -22 -184 -33 -268 -33c-154 0 -273.667 40.5 -359 121.5s-128 196.167 -128 345.5v440h203v-417c0 -106.667 25.5 -187.334 76.5 -242.001s125.167 -82 222.5 -82c83.333 0 167.666 11 252.999 33v708h199v-1464z" />
    <glyph glyph-name="afii10042" unicode="&#x428;" horiz-adv-x="1831" 
d="M1681 0h-1531v1464h192v-1294h477v1294h193v-1294h477v1294h192v-1464z" />
    <glyph glyph-name="afii10043" unicode="&#x429;" horiz-adv-x="1884" 
d="M1839 -420h-180v420h-1509v1464h192v-1294h477v1294h193v-1294h477v1294h192v-1294h158v-590z" />
    <glyph glyph-name="afii10044" unicode="&#x42a;" horiz-adv-x="1516" 
d="M698 907c75.333 7.33301 140.333 11.001 195 11.001c171.333 0 304 -39 398 -117s141 -190 141 -336c0 -144.667 -48 -258.334 -144 -341.001s-221.667 -124 -377 -124h-413v1286h-441v178h641v-557zM698 170.001c92 -6.66699 148.667 -9.99902 170 -9.99902
c235.333 0 353 103 353 309c0 93.333 -29.333 164.166 -88 212.499s-142.667 72.5 -252 72.5c-62 0 -123 -3.66699 -183 -11v-573z" />
    </font>
</defs>
</svg>
