<?xml version="1.0" standalone="no"?>
<!DOCTYPE svg PUBLIC "-//W3C//DTD SVG 1.1//EN" "http://www.w3.org/Graphics/SVG/1.1/DTD/svg11.dtd" >
<svg>
<metadata>
Created by FontForge 20090914 at Fri Oct 19 23:58:50 2012
 By www-data
&#194;&#169; 2006 Microsoft Corporation. All Rights Reserved.
</metadata>
<defs>
<font id="TrebuchetMS-Bold" horiz-adv-x="1200" >
  <font-face 
    font-family="Trebuchet MS"
    font-weight="700"
    font-stretch="normal"
    units-per-em="2048"
    panose-1="2 11 7 3 2 2 2 2 2 4"
    ascent="1638"
    descent="-410"
    x-height="1071"
    cap-height="1464"
    bbox="-206 -552 2314 2008"
    underline-thickness="200"
    underline-position="-161"
    unicode-range="U+0020-U+FB02"
  />
<missing-glyph horiz-adv-x="1024" 
d="M102 0v1092h820v-1092h-820zM204 102h616v888h-616v-888z" />
    <glyph glyph-name=".notdef" horiz-adv-x="1024" 
d="M102 0v1092h820v-1092h-820zM204 102h616v888h-616v-888z" />
    <glyph glyph-name="space" unicode=" " horiz-adv-x="617" 
 />
    <glyph glyph-name="exclam" unicode="!" horiz-adv-x="752" 
d="M426 382l-104 -0.000976562c-52 333.333 -78 566.333 -78 699v410h260v-409c0 -133.333 -26 -366.666 -78 -699.999zM382 307.999c45.333 0 83.833 -16 115.5 -48s47.5 -70.667 47.5 -116s-15.833 -84 -47.5 -116s-70.167 -48 -115.5 -48s-84 16 -116 48
s-48 70.667 -48 116s16 84 48 116s70.667 48 116 48z" />
    <glyph glyph-name="quotedbl" unicode="&#x22;" horiz-adv-x="751" 
d="M667 1036h-189l-28 431h248zM287 1036h-189l-28 431h248z" />
    <glyph glyph-name="numbersign" unicode="#" 
d="M1174 910h-215l-84 -320h154v-181h-202l-120 -429h-195l118 429h-230l-118 -429h-195l118 429h-140v181h189l83 320h-157v181h205l108 396h193l-105 -396h229l108 396h193l-104 -396h167v-181zM769 910h-237l-84 -320h235z" />
    <glyph glyph-name="dollar" unicode="$" 
d="M473 -23c-116 8 -222.001 42.667 -318.001 104l96 233c102.667 -72 203.667 -108 303 -108c152.667 0 229 52.667 229 158c0 52.667 -19.5 102.167 -58.5 148.5s-113 96.833 -222 151.5s-183.167 100 -222.5 136s-69.5 79 -90.5 129s-31.5 105.667 -31.5 167
c0 90.667 28.5 170.667 85.5 240s133.5 115.666 229.5 138.999v181h229l-1 -171c122.667 -12 214 -42 274 -90l-79 -224c-91.333 65.333 -187.666 98 -288.999 98c-60 0 -106.5 -16.167 -139.5 -48.5s-49.5 -73.166 -49.5 -122.499c0 -84 93 -171.333 279 -262
c98 -48 168.667 -92.167 212 -132.5s76.333 -87.333 99 -141s34 -113.5 34 -179.5c0 -93.333 -30 -174.833 -90 -244.5s-143.333 -117.5 -250 -143.5v-230h-229v212z" />
    <glyph glyph-name="percent" unicode="%" horiz-adv-x="1401" 
d="M31 1146c0 101.333 29.667 184.168 89 248.501s135.333 96.5 228 96.5c91.333 0 164.166 -32 218.499 -96s81.5 -153.333 81.5 -268c0 -106.667 -28.667 -192.334 -86 -257.001s-131.666 -97 -222.999 -97c-205.333 0 -308 124.333 -308 373zM217 1136
c0 -66.667 10.667 -118 32 -154s48.333 -54 81 -54c88 0 132 69 132 207c0 133.333 -39 200 -117 200c-85.333 0 -128 -66.333 -128 -199zM335 -19.998h-196l918 1511h195zM731 353.002c0 101.333 29.667 184.167 89 248.5s135.333 96.5 228 96.5
c91.333 0 164.166 -32 218.499 -96s81.5 -153 81.5 -267c0 -106.667 -28.667 -192.5 -86 -257.5s-131.666 -97.5 -222.999 -97.5c-205.333 0 -308 124.333 -308 373zM917 344.003c0 -66.667 10.5 -118 31.5 -154s48.167 -54 81.5 -54c88 0 132 69 132 207
c0 133.333 -39 200 -117 200c-85.333 0 -128 -66.333 -128 -199z" />
    <glyph glyph-name="ampersand" unicode="&#x26;" horiz-adv-x="1446" 
d="M925 44c-100 -42.667 -215.334 -63.999 -346.001 -63.999c-149.333 0 -264.5 43 -345.5 129s-121.5 204.333 -121.5 355c0 141.333 49.667 262 149 362c-86 87.333 -129 180.666 -129 279.999c0 106 41.5 196.667 124.5 272s193.167 113 330.5 113
c144 0 262.667 -36.333 356 -109l-106 -182c-83.333 59.333 -156.333 89 -219 89c-75.333 0 -133.5 -18.167 -174.5 -54.5s-61.5 -85.5 -61.5 -147.5c0 -71.333 32 -132.333 96 -183h332v167l250 93v-263h249v-211h-249v-289c0 -76.667 10.333 -129.167 31 -157.5
s55.334 -42.5 104.001 -42.5c46 0 92 10.333 138 31v-219c-69.333 -22 -144 -33 -224 -33c-64 0 -125.333 21.333 -184 64zM809.999 330.001l-0.000976562 360.001h-358c-53.333 -64.667 -80 -137.334 -80 -218.001c0 -180.667 91.667 -271 275 -271
c72.667 0 129.334 10.667 170.001 32c-4.66699 24.667 -7 57 -7 97z" />
    <glyph glyph-name="quotesingle" unicode="'" horiz-adv-x="470" 
d="M337 1036h-189l-28 431h248z" />
    <glyph glyph-name="parenleft" unicode="(" horiz-adv-x="752" 
d="M648 1494v-137.998c-132 -184.667 -198 -451.334 -198 -800.001c0 -414.667 66 -695.334 198 -842.001v-169c-157.333 106.667 -277.5 248 -360.5 424s-124.5 372.333 -124.5 589c0 185.333 46.667 370.5 140 555.5s208.333 311.833 345 380.5z" />
    <glyph glyph-name="parenright" unicode=")" horiz-adv-x="752" 
d="M163 -455v168.998c132 146.667 198 427.334 198 842.001c0 348.667 -66 615.334 -198 800.001v138c136.667 -68.667 251.667 -195.5 345 -380.5s140 -370.167 140 -555.5c0 -216.667 -41.5 -413 -124.5 -589s-203.167 -317.333 -360.5 -424z" />
    <glyph glyph-name="asterisk" unicode="*" horiz-adv-x="885" 
d="M671 1102l-134 -11l137 -78l86 -111l-193 -144l-84 122l-53 128l-49 -114l-111 -136l-172 154l118 115l110 57l-135 12l-156 62l98 205l158 -67l71 -76l-54 155v136l236 -1v-131l-46 -162l100 89l142 62l81 -201z" />
    <glyph glyph-name="plus" unicode="+" 
d="M713 535v-355h-201v355h-348v201h348v343h201v-343h349v-201h-349z" />
    <glyph glyph-name="comma" unicode="," horiz-adv-x="752" 
d="M217 -374l-84.999 109.001c122 91.333 183 163 183 215c0 20 -7 39.667 -21 59c-63.333 30.667 -95 73.667 -95 129c0 40 16.667 73.167 50 99.5s74.666 39.5 123.999 39.5c46 0 86.167 -17.5 120.5 -52.5s51.5 -75.5 51.5 -121.5
c0 -84.667 -19.833 -161.834 -59.5 -231.501s-129.167 -151.5 -268.5 -245.5z" />
    <glyph glyph-name="hyphen" unicode="-" horiz-adv-x="752" 
d="M109 476v235h529v-235h-529z" />
    <glyph glyph-name="hyphen" unicode="&#x2010;" horiz-adv-x="752" 
d="M109 476v235h529v-235h-529z" />
    <glyph glyph-name="period" unicode="." horiz-adv-x="752" 
d="M174 131c0 50 17.5 92.5 52.5 127.5s77.5 52.5 127.5 52.5s92.5 -17.5 127.5 -52.5s52.5 -77.5 52.5 -127.5s-17.5 -92.667 -52.5 -128s-77.5 -53 -127.5 -53s-92.5 17.667 -127.5 53s-52.5 78 -52.5 128z" />
    <glyph glyph-name="slash" unicode="/" horiz-adv-x="799" 
d="M241 0h-225l553 1471h223z" />
    <glyph glyph-name="zero" unicode="0" 
d="M75 777c0 200 48.833 369.001 146.5 507.001s228.167 207 391.5 207c340.667 0 511 -248.667 511 -746c0 -232.667 -46 -418.334 -138 -557.001s-221 -208 -387 -208c-178.667 0 -310.667 64 -396 192s-128 329.667 -128 605zM345 759.001
c0 -195.333 18.999 -339 56.999 -431s101 -138 189 -138c95.333 0 163 41.5 203 124.5s60 230.833 60 443.5c0 198 -19.167 334.667 -57.5 410s-101.166 113 -188.499 113c-175.333 0 -263 -174 -263 -522z" />
    <glyph glyph-name="one" unicode="1" 
d="M569 0l0.000976562 1056l-298 -179v250c191.333 92.667 342.666 207.334 453.999 344.001h104v-1471h-260z" />
    <glyph glyph-name="two" unicode="2" 
d="M155 0v75.999l464 683c92.667 136.667 139 251.667 139 345c0 110.667 -66.333 166 -199 166c-101.333 0 -183 -53.667 -245 -161l-175 138c34.667 70 89.167 128.167 163.5 174.5s156.5 69.5 246.5 69.5c150 0 267.333 -34.167 352 -102.5s127 -163.166 127 -284.499
c0 -111.333 -54.333 -250 -163 -416l-300 -457h550v-231h-960z" />
    <glyph glyph-name="three" unicode="3" 
d="M143 123l129.999 201c77.333 -82 161.333 -123 252 -123c165.333 0 248 77.667 248 233c0 70.667 -24 128.167 -72 172.5s-112.667 66.5 -194 66.5h-46v214h39c149.333 0 224 62.333 224 187c0 130.667 -69.667 196 -209 196c-72 0 -142 -34 -210 -102l-122 179
c31.333 38.667 80.333 72.334 147 101.001s133.334 43 200.001 43c146 0 259.833 -33.333 341.5 -100s122.5 -160 122.5 -280c0 -142.667 -61.333 -251.334 -184 -326.001c155.333 -74.667 233 -196.667 233 -366c0 -139.333 -46.167 -247.333 -138.5 -324
s-219.833 -115 -382.5 -115c-148 0 -274.333 47.667 -379 143z" />
    <glyph glyph-name="four" unicode="4" 
d="M984 383v-383h-250v383h-667v149l803 939h114v-882h148v-206h-148zM734 1029l-376 -440h376v440z" />
    <glyph glyph-name="five" unicode="5" 
d="M165 111l103.001 214c106 -82.667 197 -124 273 -124c168 0 252 103.333 252 310c0 99.333 -19 171.833 -57 217.5s-101.667 68.5 -191 68.5c-80.667 0 -159.334 -39.667 -236.001 -119l-103 67v726h789v-221h-539v-262c44 20 96.667 30 158 30
c144 0 254.833 -41.667 332.5 -125s116.5 -201.333 116.5 -354c0 -372.667 -173.667 -559 -521 -559c-144 0 -269.667 43.667 -377 131z" />
    <glyph glyph-name="six" unicode="6" 
d="M760 1494l138 -145.999c-99.333 -52 -189.666 -120.333 -270.999 -205s-137.333 -168.334 -168 -251.001c69.333 31.333 129.333 47 180 47c138 0 248.833 -42.833 332.5 -128.5s125.5 -201.5 125.5 -347.5c0 -144 -42.833 -260.5 -128.5 -349.5
s-193.834 -133.5 -324.501 -133.5c-341.333 0 -512 213 -512 639c0 178.667 65.833 359.5 197.5 542.5s275.167 293.833 430.5 332.5zM402 468.001c0 -178 75.667 -266.999 227 -266.999c62 0 111.333 22.167 148 66.5s55 106.166 55 185.499
c0 81.333 -19.167 145.833 -57.5 193.5s-87.833 71.5 -148.5 71.5c-149.333 0 -224 -83.333 -224 -250z" />
    <glyph glyph-name="seven" unicode="7" 
d="M537 0h-285.001c108.667 334.667 295.334 745 560.001 1231h-671v240h1010v-111l-132 -249l-137 -275.5l-140 -304c-45.333 -103 -85.333 -199.333 -120 -289s-63 -170.5 -85 -242.5z" />
    <glyph glyph-name="eight" unicode="8" 
d="M352 802c-53.333 36 -97.002 83.665 -131.002 142.998s-51 118.666 -51 177.999c0 112.667 39.833 202.167 119.5 268.5s181.834 99.5 306.501 99.5c134 0 238.667 -33.167 314 -99.5s113 -156.166 113 -269.499c0 -59.333 -21 -122.166 -63 -188.499
s-88 -112.833 -138 -139.5c63.333 -29.333 121.833 -82.333 175.5 -159s80.5 -148.667 80.5 -216c0 -138.667 -43.667 -246.5 -131 -323.5s-206 -115.5 -356 -115.5c-151.333 0 -268.166 37.667 -350.499 113s-123.5 184 -123.5 326c0 73.333 21.833 145.333 65.5 216
s100.167 126.334 169.5 167.001zM619.998 901.998c37.333 17.333 70.333 49.499 99 96.499s43 89.5 43 127.5c0 44 -15.167 79 -45.5 105s-70.5 39 -120.5 39c-110.667 0 -166 -48.333 -166 -145c0 -42.667 20.333 -86.167 61 -130.5s83.667 -75.166 129 -92.499z
M567.998 696.997c-127.333 -72 -191 -164.665 -191 -277.998c0 -62.667 19.833 -114.667 59.5 -156s91.167 -62 154.5 -62c66.667 0 121.167 18.167 163.5 54.5s63.5 84.166 63.5 143.499c0 101.333 -83.333 200.666 -250 297.999z" />
    <glyph glyph-name="nine" unicode="9" 
d="M453 -28l-138 146c202.667 112 346 258.333 430 439c-44.667 -20 -101.667 -30 -171 -30c-137.333 0 -248 42.667 -332 128s-126 201.333 -126 348c0 145.333 43 263 129 353s194 135 324 135c341.333 0 512 -214.667 512 -644c0 -178.667 -65.833 -359.5 -197.5 -542.5
s-275.167 -293.833 -430.5 -332.5zM381 1013c0 -82 19.333 -146.667 58 -194s88 -71 148 -71c149.333 0 224 83.333 224 250c0 181.333 -75.667 272 -227 272c-62 0 -111.333 -22.833 -148 -68.5s-55 -108.5 -55 -188.5z" />
    <glyph glyph-name="colon" unicode=":" horiz-adv-x="752" 
d="M174 941c0 50 17.5 92.5 52.5 127.5s77.5 52.5 127.5 52.5s92.5 -17.5 127.5 -52.5s52.5 -77.5 52.5 -127.5s-17.5 -92.667 -52.5 -128s-77.5 -53 -127.5 -53s-92.5 17.667 -127.5 53s-52.5 78 -52.5 128zM174 131c0 50 17.5 92.5 52.5 127.5s77.5 52.5 127.5 52.5
s92.5 -17.5 127.5 -52.5s52.5 -77.5 52.5 -127.5s-17.5 -92.667 -52.5 -128s-77.5 -53 -127.5 -53s-92.5 17.667 -127.5 53s-52.5 78 -52.5 128z" />
    <glyph glyph-name="semicolon" unicode=";" horiz-adv-x="752" 
d="M174 941c0 50 17.5 92.5 52.5 127.5s77.5 52.5 127.5 52.5s92.5 -17.5 127.5 -52.5s52.5 -77.5 52.5 -127.5s-17.5 -92.667 -52.5 -128s-77.5 -53 -127.5 -53s-92.5 17.667 -127.5 53s-52.5 78 -52.5 128zM217 -374l-84.999 109.001c122 91.333 183 163 183 215
c0 20 -7 39.667 -21 59c-63.333 30.667 -95 73.667 -95 129c0 40 16.667 73.167 50 99.5s74.666 39.5 123.999 39.5c46 0 86.167 -17.5 120.5 -52.5s51.5 -75.5 51.5 -121.5c0 -84.667 -19.833 -161.834 -59.5 -231.501s-129.167 -151.5 -268.5 -245.5z" />
    <glyph glyph-name="less" unicode="&#x3c;" 
d="M192 557v161l799 383v-228l-528 -236l528 -239v-228z" />
    <glyph glyph-name="equal" unicode="=" 
d="M179 745v201h898v-201h-898zM179 325v201h898v-201h-898z" />
    <glyph glyph-name="greater" unicode="&#x3e;" 
d="M265 170v228l527 239l-527 236v228l799 -383v-161z" />
    <glyph glyph-name="question" unicode="?" horiz-adv-x="897" 
d="M497 444l-191.002 -0.000976562c-1.33301 4.66699 -7.5 21.667 -18.5 51s-16.5 55 -16.5 77c0 42 5.83301 82.333 17.5 121s28.834 74.834 51.501 108.501s67.5 87.5 134.5 161.5s100.5 135 100.5 183c0 93.333 -61 140 -183 140c-59.333 0 -121.333 -29.667 -186 -89
l-103 193c86 67.333 199 101 339 101c108 0 198.167 -30 270.5 -90s108.5 -139.667 108.5 -239c0 -68 -13.167 -125.5 -39.5 -172.5s-72.666 -102.167 -138.999 -165.5s-109.5 -116 -129.5 -158s-30 -88 -30 -138c0 -10.667 4.66699 -38.667 14 -84zM411.998 307.999
c45.333 0 83.833 -16 115.5 -48s47.5 -70.667 47.5 -116s-15.833 -84 -47.5 -116s-70.167 -48 -115.5 -48s-84 16 -116 48s-48 70.667 -48 116s16 84 48 116s70.667 48 116 48z" />
    <glyph glyph-name="at" unicode="@" horiz-adv-x="1578" 
d="M922 297c-57.333 -44 -124.334 -66.001 -201.001 -66.001c-78 0 -142.333 21.167 -193 63.5s-76 99.833 -76 172.5c0 168 132 256.667 396 266c-12.667 62.667 -40.667 94 -84 94c-62.667 0 -127 -19 -193 -57l-59 136c73.333 52.667 152.666 79 237.999 79
c205.333 0 308 -111.667 308 -335v-215c38 -24.667 68.667 -37 92 -37c104 0 156 87.667 156 263c0 152 -44.167 271.5 -132.5 358.5s-211.166 130.5 -368.499 130.5c-160 0 -288.833 -53.167 -386.5 -159.5s-146.5 -242.5 -146.5 -408.5
c0 -163.333 48.167 -294.333 144.5 -393s225.833 -148 388.5 -148c86 0 155.333 9.83301 208 29.5s105.334 52.834 158.001 99.501c0.666992 -0.666992 1 -9.66699 1 -27c0 -18 -0.333008 -44 -1 -78v-101c-114.667 -65.333 -236.667 -98 -366 -98c-222 0 -400 66 -534 198
s-201 304.667 -201 518c0 216.667 67.833 394.667 203.5 534s312.834 209 531.501 209c224.667 0 398 -58 520 -174s183 -280.333 183 -493c0 -116 -32.333 -214.833 -97 -296.5s-151 -122.5 -259 -122.5c-98.667 0 -175.334 19.333 -230.001 58zM851.999 596.999h-21
c-110 0 -165 -41.667 -165 -125c0 -26 9.66699 -47.5 29 -64.5s44 -25.5 74 -25.5c32 0 59.667 10.333 83 31v184z" />
    <glyph glyph-name="A" unicode="A" horiz-adv-x="1297" 
d="M1005 0l-107 297h-502l-102 -297h-289l584 1485h114l589 -1485h-287zM646 1037l-176 -541h352z" />
    <glyph glyph-name="B" unicode="B" horiz-adv-x="1219" 
d="M598 0l-447.999 -0.000976562v1464c197.333 9.33301 335.666 14 414.999 14c152 0 270.833 -32.5 356.5 -97.5s128.5 -157.833 128.5 -278.5c0 -116 -61.333 -207.667 -184 -275c182 -63.333 273 -194 273 -392c0 -133.333 -50.333 -239.166 -151 -317.499
s-230.667 -117.5 -390 -117.5zM410.001 1256l0.000976562 -351c40 -2.66699 82 -4 126 -4c169.333 0 254 63.667 254 191c0 112.667 -77 169 -231 169c-40.667 0 -90.334 -1.66699 -149.001 -5zM410.002 701.999l-0.000976562 -483.999
c52.667 -4.66699 95.334 -7 128.001 -7c116 0 200.167 19.667 252.5 59s78.5 104.666 78.5 195.999c0 83.333 -24.333 144 -73 182s-133.667 57 -255 57c-25.333 0 -69 -1 -131 -3z" />
    <glyph glyph-name="C" unicode="C" horiz-adv-x="1253" 
d="M1154 1387l-107 -215.002c-58 58 -151.333 87 -280 87c-122 0 -222 -51.167 -300 -153.5s-117 -231.833 -117 -388.5s36.167 -281 108.5 -373s168.833 -138 289.5 -138c138 0 246 49.333 324 148l121 -210c-106 -112.667 -261.333 -169 -466 -169
s-363.667 67.333 -477 202s-170 318.334 -170 551.001c0 216.667 62.833 397.834 188.5 543.501s286.5 218.5 482.5 218.5c168 0 302.333 -34.333 403 -103z" />
    <glyph glyph-name="D" unicode="D" horiz-adv-x="1316" 
d="M475 0h-324.999v1464c207.333 7.33301 337.666 11 390.999 11c213.333 0 382.5 -62.5 507.5 -187.5s187.5 -290.833 187.5 -497.5c0 -526.667 -253.667 -790 -761 -790zM410.001 1237l0.000976562 -999.999c42 -4 87.333 -6 136 -6c131.333 0 234.166 47.667 308.499 143
s111.5 228.666 111.5 399.999c0 313.333 -145.667 470 -437 470c-28 0 -67.667 -2.33301 -119 -7z" />
    <glyph glyph-name="E" unicode="E" horiz-adv-x="1165" 
d="M410 1234v-343h484v-221h-484v-439h664v-231h-924v1465h935v-231h-675z" />
    <glyph glyph-name="F" unicode="F" horiz-adv-x="1195" 
d="M410 1234v-343h515v-221h-515v-670h-260v1465h965v-231h-705z" />
    <glyph glyph-name="G" unicode="G" horiz-adv-x="1375" 
d="M1232 1346l-109.001 -209c-30.667 27.333 -78 54.5 -142 81.5s-119 40.5 -165 40.5c-144 0 -257.667 -48.833 -341 -146.5s-125 -228.5 -125 -392.5c0 -156 40.833 -280.667 122.5 -374s192.834 -140 333.501 -140c92.667 0 169 25.333 229 76v288h-203v222h463v-656
c-62 -50.667 -141.833 -90.167 -239.5 -118.5s-194.834 -42.5 -291.501 -42.5c-210 0 -376.5 68.833 -499.5 206.5s-184.5 319.5 -184.5 545.5s67 409.667 201 551s314.333 212 541 212c160.667 0 297.334 -48 410.001 -144z" />
    <glyph glyph-name="H" unicode="H" horiz-adv-x="1400" 
d="M993 0v660h-583v-660h-260v1465h260v-574h583v574h257v-1465h-257z" />
    <glyph glyph-name="I" unicode="I" horiz-adv-x="570" 
d="M155 0v1465h260v-1465h-260z" />
    <glyph glyph-name="J" unicode="J" horiz-adv-x="1091" 
d="M17 339h232.001c22 -85.333 93.333 -128 214 -128c85.333 0 145.5 27.667 180.5 83s52.5 139.333 52.5 252v919h260v-911c0 -194.667 -41.333 -339 -124 -433s-215.334 -141 -398.001 -141c-121.333 0 -219.333 31.667 -294 95s-115.667 151.333 -123 264z" />
    <glyph glyph-name="K" unicode="K" horiz-adv-x="1264" 
d="M981 0l-408 624l-163 -223v-401h-260v1465h260v-701l498 701h296l-459 -640l547 -825h-311z" />
    <glyph glyph-name="L" unicode="L" horiz-adv-x="1132" 
d="M150 0v1465h260v-1234h662v-231h-922z" />
    <glyph glyph-name="M" unicode="M" horiz-adv-x="1526" 
d="M1516 -1h-252l-152 790l-295 -809h-93l-295 809l-158 -790h-251l295 1466h138l317 -987l310 987h137z" />
    <glyph glyph-name="N" unicode="N" horiz-adv-x="1367" 
d="M1111 -20l-711 927v-908h-250v1466h125l692 -884v884h250v-1485h-106z" />
    <glyph glyph-name="O" unicode="O" horiz-adv-x="1440" 
d="M80 745c0 208.667 57.168 385.167 171.501 529.5s267.166 216.5 458.499 216.5c210.667 0 371.667 -65.333 483 -196s167 -314 167 -550s-58.167 -423.333 -174.5 -562s-281.5 -208 -495.5 -208c-196.667 0 -347.5 68.667 -452.5 206s-157.5 325.333 -157.5 564z
M350.001 745c0 -171.333 29 -304 87 -398s142.333 -141 253 -141c130 0 229.167 46 297.5 138s102.5 225.667 102.5 401c0 343.333 -126.667 515 -380 515c-116 0 -205 -46.5 -267 -139.5s-93 -218.167 -93 -375.5z" />
    <glyph glyph-name="P" unicode="P" horiz-adv-x="1202" 
d="M410 539v-539h-260v1464c173.333 7.33301 274.666 11 303.999 11c231.333 0 400.5 -35.5 507.5 -106.5s160.5 -181.833 160.5 -332.5c0 -336 -198 -504 -594 -504c-29.333 0 -68.666 2.33301 -117.999 7zM410 1239l-0.00195312 -469c44 -4.66699 78.667 -7 104 -7
c118.667 0 205.334 19.833 260.001 59.5s82 104.167 82 193.5c0 152 -122.333 228 -367 228c-27.333 0 -53.666 -1.66699 -78.999 -5z" />
    <glyph glyph-name="Q" unicode="Q" horiz-adv-x="1452" 
d="M1539 -303c-44 -6 -88.666 -9 -133.999 -9c-124 0 -238.167 25.167 -342.5 75.5s-185.5 120.833 -243.5 211.5c-24.667 -4.66699 -64.334 -7 -119.001 -7c-192.667 0 -344.167 72 -454.5 216s-165.5 329.333 -165.5 556c0 214.667 56.333 393.5 169 536.5
s263 214.5 451 214.5c211.333 0 374.166 -66.167 488.499 -198.5s171.5 -316.5 171.5 -552.5c0 -350 -114.667 -583.667 -344 -701c72.667 -80 193.334 -120 362.001 -120c62 0 115.667 6.66699 161 20v-242zM350.001 740c0 -153.333 30.667 -281.667 92 -385
s147.333 -155 258 -155c128 0 225 47.333 291 142s99 227.334 99 398.001c0 346 -130 519 -390 519c-114.667 0 -201.667 -46.333 -261 -139s-89 -219.334 -89 -380.001z" />
    <glyph glyph-name="R" unicode="R" horiz-adv-x="1251" 
d="M976 0l-391 604.999c-39.333 0.666992 -94.333 3 -165 7v-612h-270v1465c14.667 0 71 2.5 169 7.5s177 7.5 237 7.5c372 0 558 -144 558 -432c0 -86.667 -25.667 -165.667 -77 -237s-116 -121.666 -194 -150.999l433 -660h-300zM420 1239v-407.001
c48 -4 84.667 -6 110 -6c108.667 0 188.167 15.333 238.5 46s75.5 90.334 75.5 179.001c0 72 -27 122.333 -81 151s-139 43 -255 43c-28 0 -57.333 -2 -88 -6z" />
    <glyph glyph-name="S" unicode="S" horiz-adv-x="1047" 
d="M80 81l96 233.004c102.667 -72 203.667 -108 303 -108c152.667 0 229 53.333 229 160c0 50 -18 97.667 -54 143s-110.167 96.166 -222.5 152.499s-188 102.666 -227 138.999s-69 79.5 -90 129.5s-31.5 105.333 -31.5 166c0 113.333 41.5 207.333 124.5 282
s189.5 112 319.5 112c169.333 0 293.666 -31.667 372.999 -95l-79 -224c-91.333 65.333 -187.666 98 -288.999 98c-60 0 -106.5 -15.833 -139.5 -47.5s-49.5 -72.834 -49.5 -123.501c0 -84 93 -171.333 279 -262c98 -48 168.667 -92.167 212 -132.5s76.333 -87.333 99 -141
s34 -113.5 34 -179.5c0 -118.667 -46.833 -216.334 -140.5 -293.001s-219.167 -115 -376.5 -115c-136.667 0 -260 35.333 -370 106z" />
    <glyph glyph-name="T" unicode="T" horiz-adv-x="1253" 
d="M746 1234v-1234h-260v1234h-466v231h1213v-231h-487z" />
    <glyph glyph-name="U" unicode="U" horiz-adv-x="1388" 
d="M150 1465l260 0.000976562v-993c0 -78.667 24 -142.667 72 -192s114 -74 198 -74c94 0 167.167 24.167 219.5 72.5s78.5 114.5 78.5 198.5v988h260v-1008c0 -150.667 -50.5 -268.667 -151.5 -354s-235.833 -128 -404.5 -128c-170 0 -301.167 41.667 -393.5 125
s-138.5 202.666 -138.5 357.999v1007z" />
    <glyph glyph-name="V" unicode="V" horiz-adv-x="1273" 
d="M696 -20h-143l-548 1485h286l339 -990l358 990h280z" />
    <glyph glyph-name="W" unicode="W" horiz-adv-x="1810" 
d="M1331 -20h-107l-320 924l-311 -924h-107l-481 1485h271l275 -884l297 884h114l298 -884l274 884h271z" />
    <glyph glyph-name="X" unicode="X" horiz-adv-x="1230" 
d="M942 0l-346 527l-320 -527h-271l439 759l-404 707l266 -1l297 -495l327 495h272l-464 -710l487 -755h-283z" />
    <glyph glyph-name="Y" unicode="Y" horiz-adv-x="1256" 
d="M759 601v-601h-260v601l-494 864h276l347 -625l348 625h275z" />
    <glyph glyph-name="Z" unicode="Z" horiz-adv-x="1147" 
d="M80 0v84l611 1150h-601v231h955v-84l-613 -1150h635v-231h-987z" />
    <glyph glyph-name="bracketleft" unicode="[" horiz-adv-x="823" 
d="M150 -420v1930h523v-223h-263v-1484h263v-223h-523z" />
    <glyph glyph-name="backslash" unicode="\" horiz-adv-x="728" 
d="M528 0l-536 1471h206l537 -1471h-207z" />
    <glyph glyph-name="bracketright" unicode="]" horiz-adv-x="823" 
d="M673 -420h-523v223h263v1484h-263v223h523v-1930z" />
    <glyph glyph-name="asciicircum" unicode="^" 
d="M812 907l-214 358l-218 -362h-192l358 568h107l356 -564h-197z" />
    <glyph glyph-name="underscore" unicode="_" 
d="M-8 -334v209h1215v-209h-1215z" />
    <glyph glyph-name="grave" unicode="`" 
d="M596 1215l-226 293h267l169 -293h-210z" />
    <glyph glyph-name="a" unicode="a" horiz-adv-x="1091" 
d="M731 107c-22.667 -37.333 -62.168 -67.833 -118.501 -91.5s-115.166 -35.5 -176.499 -35.5c-115.333 0 -206 28.833 -272 86.5s-99 139.5 -99 245.5c0 124 46.5 221 139.5 291s225.167 105 396.5 105c29.333 0 64 -5 104 -15c0 126 -79.667 189 -239 189
c-94 0 -172.667 -15.667 -236 -47l-54 194c86 41.333 188.333 62 307 62c163.333 0 283 -37.167 359 -111.5s114 -215.166 114 -422.499v-229c0 -142.667 28.667 -232.334 86 -269.001c-20.667 -36 -43.667 -58.167 -69 -66.5s-54.333 -12.5 -87 -12.5
c-36 0 -68.333 13.333 -97 40s-48 55.667 -58 87zM706.999 504c-42.667 8.66699 -74.667 13 -96 13c-197.333 0 -296 -64.667 -296 -194c0 -96 55.667 -144 167 -144c150 0 225 75 225 225v100z" />
    <glyph glyph-name="b" unicode="b" horiz-adv-x="1191" 
d="M312 59l-56.002 -79.001h-141v1490l250 60v-500c66.667 40.667 139.334 61 218.001 61c156.667 0 283 -49.5 379 -148.5s144 -225.833 144 -380.5c0 -179.333 -48.333 -321.166 -145 -425.499s-227.667 -156.5 -393 -156.5c-99.333 0 -184.666 26.333 -255.999 79z
M364.998 815.999l-0.000976562 -559c36.667 -43.333 86.334 -65 149.001 -65c120.667 0 206.167 28.667 256.5 86s75.5 149 75.5 275c0 217.333 -104 326 -312 326c-74 0 -130.333 -21 -169 -63z" />
    <glyph glyph-name="c" unicode="c" horiz-adv-x="1048" 
d="M975 986l-107.001 -186.999c-58.667 55.333 -137.334 83 -236.001 83c-94.667 0 -169.5 -31.5 -224.5 -94.5s-82.5 -150.167 -82.5 -261.5c0 -224.667 107 -337 321 -337c92.667 0 174.334 30.667 245.001 92l92 -197c-72.667 -45.333 -136.167 -74 -190.5 -86
s-118.5 -18 -192.5 -18c-165.333 0 -295.833 48.167 -391.5 144.5s-143.5 230.166 -143.5 401.499c0 168.667 52.333 305 157 409s247.334 156 428.001 156c124.667 0 233 -35 325 -105z" />
    <glyph glyph-name="d" unicode="d" horiz-adv-x="1189" 
d="M824 0v65.001c-20.667 -22.667 -55.667 -42.5 -105 -59.5s-100.333 -25.5 -153 -25.5c-149.333 0 -266.833 47.333 -352.5 142s-128.5 226.667 -128.5 396s49.167 307.166 147.5 413.499s221.5 159.5 369.5 159.5c81.333 0 155.333 -16.667 222 -50v429l250 60v-1530
h-250zM824 815.001c-53.333 42.667 -109 64 -167 64c-100 0 -177 -30.5 -231 -91.5s-81 -148.5 -81 -262.5c0 -222.667 107.333 -334 322 -334c24 0 53.5 7.16699 88.5 21.5s57.833 28.833 68.5 43.5v559z" />
    <glyph glyph-name="e" unicode="e" horiz-adv-x="1177" 
d="M1091 459l-765 -0.00195312c4.66699 -85.333 34 -151.666 88 -198.999s126.667 -71 218 -71c114 0 200.667 29.667 260 89l97 -191c-88 -71.333 -219.333 -107 -394 -107c-163.333 0 -292.5 47.833 -387.5 143.5s-142.5 229.167 -142.5 400.5
c0 168.667 52.167 305.334 156.5 410.001s229.5 157 375.5 157c155.333 0 280 -46.333 374 -139s141 -210.667 141 -354c0 -30.667 -7 -77 -21 -139zM335 646.998h526.001c-17.333 156.667 -104 235 -260 235c-142.667 0 -231.334 -78.333 -266.001 -235z" />
    <glyph glyph-name="f" unicode="f" horiz-adv-x="757" 
d="M732 1281c-54.667 18 -96.665 27.001 -125.998 27.001c-47.333 0 -87.5 -20.333 -120.5 -61s-49.5 -90.667 -49.5 -150c0 -8.66699 0.333008 -17.334 1 -26.001h222v-206h-218v-865h-250v865h-156v206h157c5.33301 131.333 44.166 237.333 116.499 318
s165.833 121 280.5 121c59.333 0 131.666 -13 216.999 -39z" />
    <glyph glyph-name="g" unicode="g" horiz-adv-x="1028" 
d="M55 -275l157.997 195.001c87.333 -80 184.666 -120 291.999 -120c72 0 131.333 10.667 178 32s70 50.666 70 87.999c0 63.333 -51.667 95 -155 95c-28 0 -69.667 -3.33301 -125 -10s-97 -10 -125 -10c-172 0 -258 61.667 -258 185c0 35.333 14.333 70 43 104
s62 59 100 75c-122 79.333 -183 191.666 -183 336.999c0 114.667 42 209.5 126 284.5s187.333 112.5 310 112.5c96 0 176.333 -18 241 -54l98 114l173 -157l-119 -87c41.333 -62.667 62 -136.667 62 -222c0 -122 -37.167 -219.5 -111.5 -292.5
s-168.166 -109.5 -281.499 -109.5c-18 0 -42 1.66699 -72 5l-41 6c-4.66699 0 -22.5 -7.16699 -53.5 -21.5s-46.5 -29.166 -46.5 -44.499c0 -26.667 23 -40 69 -40c20.667 0 55.334 5 104.001 15s90.334 15 125.001 15c243.333 0 365 -97.667 365 -293
c0 -108 -48.667 -192.833 -146 -254.5s-214.666 -92.5 -351.999 -92.5c-164 0 -312.333 48.333 -445 145zM304.997 695.001c0 -63.333 17.5 -114.166 52.5 -152.499s82.167 -57.5 141.5 -57.5s105 18.667 137 56s48 88.666 48 153.999c0 54 -17.167 99.667 -51.5 137
s-78.833 56 -133.5 56c-57.333 0 -104 -18 -140 -54s-54 -82.333 -54 -139z" />
    <glyph glyph-name="h" unicode="h" horiz-adv-x="1214" 
d="M828 0v660c0 66 -20.667 119 -62 159s-95.333 60 -162 60c-41.333 0 -83 -11.167 -125 -33.5s-72 -47.833 -90 -76.5v-769h-254v1470l254 60v-527c64.667 58.667 153.667 88 267 88c134 0 238 -37.167 312 -111.5s111 -180.833 111 -319.5v-660h-251z" />
    <glyph glyph-name="i" unicode="i" horiz-adv-x="611" 
d="M331 1486c40 0 74.167 -14.167 102.5 -42.5s42.5 -62.5 42.5 -102.5s-14.167 -74.167 -42.5 -102.5s-62.5 -42.5 -102.5 -42.5s-74.167 14.167 -102.5 42.5s-42.5 62.5 -42.5 102.5s14.167 74.167 42.5 102.5s62.5 42.5 102.5 42.5zM202 0v866h-137v205h390v-1071h-253z
" />
    <glyph glyph-name="j" unicode="j" horiz-adv-x="751" 
d="M446 1486c40 0 74.167 -14.167 102.5 -42.5s42.5 -62.5 42.5 -102.5s-14.167 -74.167 -42.5 -102.5s-62.5 -42.5 -102.5 -42.5s-74.167 14.167 -102.5 42.5s-42.5 62.5 -42.5 102.5s14.167 74.167 42.5 102.5s62.5 42.5 102.5 42.5zM-12 -420l-0.000976562 223
c133.333 0 223.5 15.833 270.5 47.5s70.5 88.5 70.5 170.5v844h-193v206h443v-1046c0 -153.333 -48.167 -265.833 -144.5 -337.5s-245.166 -107.5 -446.499 -107.5z" />
    <glyph glyph-name="k" unicode="k" horiz-adv-x="1122" 
d="M820 0l-315 485l-120 -127v-358h-250v1470l250 60v-870l357 411h301l-362 -406l436 -665h-297z" />
    <glyph glyph-name="l" unicode="l" horiz-adv-x="604" 
d="M178 1470l250 60v-1204c0 -132 39.333 -210.667 118 -236c-38.667 -73.333 -104.667 -110 -198 -110c-113.333 0 -170 78.667 -170 236v1254z" />
    <glyph glyph-name="m" unicode="m" horiz-adv-x="1760" 
d="M1375 0l0.000976562 670.999c0 140.667 -63 211 -189 211c-37.333 0 -73.333 -11 -108 -33s-59 -47.333 -73 -76v-773h-250v710c0 52.667 -16.333 94.5 -49 125.5s-78.667 46.5 -138 46.5c-31.333 0 -65.5 -11.667 -102.5 -35s-63.833 -49 -80.5 -77v-770h-250v1071h172
l51 -94c69.333 76 159 114 269 114c142 0 249 -38.667 321 -116c31.333 35.333 75 63.5 131 84.5s112 31.5 168 31.5c119.333 0 212.166 -34.167 278.499 -102.5s99.5 -162.166 99.5 -281.499v-707h-250z" />
    <glyph glyph-name="n" unicode="n" horiz-adv-x="1209" 
d="M824 0l0.000976562 619.001c0 91.333 -17.5 158 -52.5 200s-92.167 63 -171.5 63c-36.667 0 -75.834 -10.333 -117.501 -31s-74.167 -46.334 -97.5 -77.001v-774h-250v1071h180l46 -100c68 80 168.333 120 301 120c127.333 0 227.833 -38.167 301.5 -114.5
s110.5 -182.833 110.5 -319.5v-657h-250z" />
    <glyph glyph-name="o" unicode="o" horiz-adv-x="1159" 
d="M65 538c0 163.333 47.167 296.333 141.5 399s218.833 154 373.5 154c162.667 0 289 -49.333 379 -148s135 -233.667 135 -405c0 -170.667 -45.833 -306.334 -137.5 -407.001s-217.167 -151 -376.5 -151c-162.667 0 -289.167 50.833 -379.5 152.5
s-135.5 236.834 -135.5 405.501zM325 538c0 -236 85 -353.999 255 -353.999c78 0 139.833 30.667 185.5 92s68.5 148.666 68.5 261.999c0 232.667 -84.667 349 -254 349c-78 0 -140 -30.667 -186 -92s-69 -147 -69 -257z" />
    <glyph glyph-name="p" unicode="p" horiz-adv-x="1193" 
d="M365 27v-447h-250v1491h250v-72c62.667 61.333 139.667 92 231 92c341.333 0 512 -188 512 -564c0 -175.333 -47.167 -310.333 -141.5 -405s-223.166 -142 -386.499 -142c-78.667 0 -150.334 15.667 -215.001 47zM365 809l0.000976562 -563.001
c45.333 -36.667 98.333 -55 159 -55c115.333 0 198.166 27.5 248.499 82.5s75.5 141.833 75.5 260.5c0 126.667 -25 215.834 -75 267.501s-132.667 77.5 -248 77.5c-60 0 -113.333 -23.333 -160 -70z" />
    <glyph glyph-name="q" unicode="q" horiz-adv-x="1196" 
d="M831 -420v450c-60 -33.333 -142.667 -50 -248 -50c-156 0 -278 47.5 -366 142.5s-132 229.167 -132 402.5c0 172.667 50.5 310.167 151.5 412.5s230.167 153.5 387.5 153.5c93.333 0 178 -28 254 -84l41 64h162v-1491h-250zM831 817
c-44.667 41.333 -103 61.999 -175 61.999c-97.333 0 -173.5 -32.167 -228.5 -96.5s-82.5 -150.166 -82.5 -257.499c0 -222.667 101 -334 303 -334c74 0 135 17.333 183 52v574z" />
    <glyph glyph-name="r" unicode="r" horiz-adv-x="875" 
d="M754 838c-44.667 29.333 -93.666 44 -146.999 44c-58 0 -109.5 -26.333 -154.5 -79s-67.5 -117 -67.5 -193v-610h-250v1071h250v-98c70 78.667 163 118 279 118c85.333 0 150.666 -13 195.999 -39z" />
    <glyph glyph-name="s" unicode="s" horiz-adv-x="882" 
d="M69 69l89.001 199c74.667 -59.333 159 -89 253 -89c97.333 0 146 34.667 146 104c0 40.667 -14.667 74 -44 100s-86.333 56.667 -171 92c-184.667 76.667 -277 184 -277 322c0 92.667 35.333 164.834 106 216.501s161 77.5 271 77.5c111.333 0 216 -25 314 -75l-72 -194
c-54.667 46.667 -130.667 70 -228 70c-87.333 0 -131 -34.667 -131 -104c0 -27.333 14.333 -52 43 -74s90 -51.5 184 -88.5s161.667 -81.833 203 -134.5s62 -116.334 62 -191.001c0 -99.333 -36.833 -177.5 -110.5 -234.5s-173.834 -85.5 -300.501 -85.5
c-71.333 0 -128.5 5.83301 -171.5 17.5s-98.167 35.5 -165.5 71.5z" />
    <glyph glyph-name="t" unicode="t" horiz-adv-x="812" 
d="M173 870l-124 0.00195312v201h124v218l250 92v-310h294v-201h-294v-469c0 -76.667 12 -130.834 36 -162.501s66 -47.5 126 -47.5s116 16.333 168 49v-230c-58 -20 -140.667 -30 -248 -30c-106.667 0 -188.667 30.167 -246 90.5s-86 146.166 -86 257.499v542z" />
    <glyph glyph-name="u" unicode="u" horiz-adv-x="1210" 
d="M825 -1l-0.000976562 90c-35.333 -30 -84 -55.667 -146 -77s-119 -32 -171 -32c-248.667 0 -373 132 -373 396v695h250v-676c0 -137.333 61.667 -206 185 -206c56.667 0 109.334 14.667 158.001 44s81 63.333 97 102v736h250v-1072h-250z" />
    <glyph glyph-name="v" unicode="v" horiz-adv-x="1080" 
d="M579 -20h-90l-484 1091h274l256 -654l275 654h265z" />
    <glyph glyph-name="w" unicode="w" horiz-adv-x="1605" 
d="M1187 -20h-91l-294 658l-293 -658h-92l-404 1091h263l215 -639l262 639h90l271 -643l232 643h246z" />
    <glyph glyph-name="x" unicode="x" horiz-adv-x="1131" 
d="M823 0l-275 349l-247 -349h-296l411 548l-378 523h287l226 -327l252 327h285l-411 -523l449 -548h-303z" />
    <glyph glyph-name="y" unicode="y" horiz-adv-x="1093" 
d="M609 -172c-26.667 -71.333 -83.832 -130.5 -171.499 -177.5s-189.834 -70.5 -306.501 -70.5v221c192.667 0 289 48.333 289 145c0 64 -26.667 162 -80 294l-335 831h259l292 -740l263 740h259z" />
    <glyph glyph-name="z" unicode="z" horiz-adv-x="1082" 
d="M65 0v85l581 768h-571v218h936v-88l-560 -765h566v-218h-952z" />
    <glyph glyph-name="braceleft" unicode="{" horiz-adv-x="888" 
d="M641 -420c-120 0 -220.833 28.668 -302.5 86.001s-122.5 134.666 -122.5 231.999c0 48 12.333 118.667 37 212s37 164 37 212c0 110 -69.667 169.333 -209 178v136c139.333 10 209 75 209 195c0 42.667 -12.333 104.834 -37 186.501s-37 143.834 -37 186.501
c0 92.667 41 166.834 123 222.501s179.667 83.5 293 83.5h178v-187h-205c-89.333 0 -134 -49.667 -134 -149c0 -37.333 10.5 -91.5 31.5 -162.5s31.5 -125.167 31.5 -162.5c0 -102.667 -64 -194.334 -192 -275.001c128 -66.667 192 -148.667 192 -246
c0 -41.333 -10.5 -101.833 -31.5 -181.5s-31.5 -139.834 -31.5 -180.501c0 -46.667 9.83301 -84.834 29.5 -114.501s48 -50 85 -61s111.833 -16.5 224.5 -16.5v-194h-169z" />
    <glyph glyph-name="bar" unicode="|" 
d="M505 -420v1930h206v-1930h-206z" />
    <glyph glyph-name="braceright" unicode="}" horiz-adv-x="888" 
d="M810 500c-139.333 -8.66699 -209 -68.001 -209 -178.001c0 -48 12.333 -118.667 37 -212s37 -164 37 -212c0 -97.333 -40.833 -174.666 -122.5 -231.999s-182.5 -86 -302.5 -86h-169v194c112.667 0 187.5 5.5 224.5 16.5s65.333 31.333 85 61s29.5 67.834 29.5 114.501
c0 40.667 -10.5 100.834 -31.5 180.501s-31.5 140.167 -31.5 181.5c0 97.333 64 179.333 192 246c-128 80.667 -192 172.334 -192 275.001c0 37.333 10.5 91.5 31.5 162.5s31.5 125.167 31.5 162.5c0 99.333 -44.667 149 -134 149h-205v187h178
c112.667 0 210.167 -27.833 292.5 -83.5s123.5 -129.834 123.5 -222.501c0 -42.667 -12.333 -104.834 -37 -186.501s-37 -143.834 -37 -186.501c0 -120 69.667 -185 209 -195v-136z" />
    <glyph glyph-name="asciitilde" unicode="~" 
d="M326 479l-145.996 0.00195312c14 80 40.167 144.5 78.5 193.5s85.5 73.5 141.5 73.5c32 0 64 -3.33301 96 -10s97.667 -25.334 197 -56.001c27.333 -7.33301 51.666 -11 72.999 -11c40 0 69 25.667 87 77h148c-25.333 -98.667 -56 -167.834 -92 -207.501
s-82.333 -59.5 -139 -59.5c-31.333 0 -63.333 3.33301 -96 10s-80.834 19.5 -144.501 38.5s-101.834 28.5 -114.501 28.5c-34.667 0 -64.334 -25.667 -89.001 -77z" />
    <glyph glyph-name="nonbreakingspace" unicode="&#xa0;" horiz-adv-x="617" 
 />
    <glyph glyph-name="exclamdown" unicode="&#xa1;" horiz-adv-x="752" 
d="M382 763c-45.333 0 -84 16 -116 48s-48 70.667 -48 116s16 84 48 116s70.667 48 116 48s83.833 -16 115.5 -48s47.5 -70.667 47.5 -116s-15.833 -84 -47.5 -116s-70.167 -48 -115.5 -48zM504 -420l-260 -0.000976562v410c0 132.667 26 365.667 78 699h104
c52 -333.333 78 -566.666 78 -699.999v-409z" />
    <glyph glyph-name="cent" unicode="&#xa2;" 
d="M755 1080h122l-58 -144c40 -14 76.667 -34 110 -60l-91 -158c-24.667 23.333 -53.334 40.666 -86.001 51.999l-188 -467c30.667 -12 65.667 -18 105 -18c67.333 0 130 25.333 188 76l78 -168c-57.333 -35.333 -107.166 -58.166 -149.499 -68.499
s-92.5 -15.5 -150.5 -15.5c-50.667 0 -97.667 6.33301 -141 19l-44 -110h-123l63 156c-110.667 72.667 -166 190.667 -166 354c0 130 40.167 234.833 120.5 314.5s189.5 119.5 327.5 119.5c12 0 23.667 -0.333008 35 -1zM473 380l163 405
c-131.333 -11.333 -197 -97 -197 -257c0 -60 11.333 -109.333 34 -148z" />
    <glyph glyph-name="sterling" unicode="&#xa3;" horiz-adv-x="1074" 
d="M576 0l-474.001 0.000976562v183c60 19.333 90 53.666 90 102.999v394h-82v201h82v113c0 157.333 40.333 279.5 121 366.5s186 130.5 316 130.5c146.667 0 256.667 -48.333 330 -145l-130 -177c-53.333 68.667 -127.666 103 -222.999 103c-102.667 0 -154 -90 -154 -270
v-121h199v-201h-199v-449h193c51.333 0 93.333 8.33301 126 25s66.667 48.667 102 96l187 -141c-82.667 -140.667 -244 -211 -484 -211z" />
    <glyph glyph-name="currency" unicode="&#xa4;" 
d="M987 203l-147.001 148c-78.667 -50 -161.667 -75 -249 -75s-170.666 25 -249.999 75l-147 -148l-126 132l147 144c-48.667 81.333 -73 163.666 -73 246.999c0 82.667 24.333 164.667 73 246l-147 144l126 132l148 -148c78.667 50 161.667 75 249 75
s170.333 -24.667 249 -74l147 147l127 -132l-147 -144c49.333 -81.333 74 -163.333 74 -246c0 -83.333 -24.667 -165.666 -74 -246.999l147 -144zM320.999 726c0 -75.333 26 -139.168 78 -191.501s115.667 -78.5 191 -78.5c74 0 137.333 26.333 190 79
s79 116.334 79 191.001s-26.167 138.167 -78.5 190.5s-115.833 78.5 -190.5 78.5c-75.333 0 -139 -26.167 -191 -78.5s-78 -115.833 -78 -190.5z" />
    <glyph glyph-name="yen" unicode="&#xa5;" horiz-adv-x="1168" 
d="M251 520h204v81l-494 864h275l348 -625l348 625h275l-492 -864v-81h210v-194h-210v-326h-260v326h-204v194z" />
    <glyph glyph-name="brokenbar" unicode="&#xa6;" 
d="M504 673v837h206v-837h-206zM504 -420v837h206v-837h-206z" />
    <glyph glyph-name="section" unicode="&#xa7;" horiz-adv-x="929" 
d="M65 84l91.001 239.999c89.333 -78.667 183.666 -118 282.999 -118c114 0 171 37.333 171 112c0 71.333 -68.333 120.333 -205 147c-101.333 20 -181.333 54 -240 102s-88 105.667 -88 173c0 77.333 25.667 140 77 188c-66 56.667 -99 135 -99 235
c0 95.333 40.333 173.666 121 234.999s181 92 301 92c48 0 103.833 -11 167.5 -33s115.834 -49.333 156.501 -82l-103 -218c-27.333 28.667 -62.333 52.834 -105 72.501s-79.667 29.5 -111 29.5c-104.667 0 -157 -34.333 -157 -103c0 -18 5.16699 -33.667 15.5 -47
s23.833 -23.833 40.5 -31.5s58 -19.167 124 -34.5c119.333 -27.333 204.666 -66.5 255.999 -117.5s77 -117.833 77 -200.5c0 -65.333 -22 -122 -66 -170c72 -53.333 108 -125.666 108 -216.999c0 -115.333 -38.833 -204.333 -116.5 -267s-182.167 -94 -313.5 -94
c-154.667 0 -283 35.667 -385 107zM359.001 854.999c-25.333 -16.667 -38 -39.666 -38 -68.999c0 -30 10.667 -55 32 -75s98 -46.333 230 -79c0.666992 7.33301 1 32.666 1 75.999c0 27.333 -14 55.5 -42 84.5s-89 49.833 -183 62.5z" />
    <glyph glyph-name="dieresis" unicode="&#xa8;" 
d="M288 1500c39.333 0 72.833 -14 100.5 -42s41.5 -61.667 41.5 -101s-13.833 -72.833 -41.5 -100.5s-61.167 -41.5 -100.5 -41.5s-73 13.833 -101 41.5s-42 61.167 -42 100.5s14 73 42 101s61.667 42 101 42zM908 1500c39.333 0 72.833 -14 100.5 -42
s41.5 -61.667 41.5 -101s-13.833 -72.833 -41.5 -100.5s-61.167 -41.5 -100.5 -41.5s-73 13.833 -101 41.5s-42 61.167 -42 100.5s14 73 42 101s61.667 42 101 42z" />
    <glyph glyph-name="copyright" unicode="&#xa9;" horiz-adv-x="1460" 
d="M75 661c0 194.667 68.833 360.667 206.5 498s303.834 206 498.501 206s360.667 -68.667 498 -206s206 -303.333 206 -498s-68.667 -360.834 -206 -498.501s-303.333 -206.5 -498 -206.5s-360.834 68.833 -498.501 206.5s-206.5 303.834 -206.5 498.501zM245 661
c0 -147.333 52.333 -273.333 157 -378s230.667 -157 378 -157s273.166 52.167 377.499 156.5s156.5 230.5 156.5 378.5c0 147.333 -52.167 273.166 -156.5 377.499s-230.166 156.5 -377.499 156.5c-148 0 -274.167 -52.167 -378.5 -156.5s-156.5 -230.166 -156.5 -377.499z
M1012 1025l-56 -142.001c-46 34 -101.667 51 -167 51c-57.333 0 -103.5 -25.5 -138.5 -76.5s-52.5 -117.5 -52.5 -199.5c0 -79.333 18.333 -142.5 55 -189.5s82.667 -70.5 138 -70.5c60.667 0 114.667 30.667 162 92l92 -126c-76.667 -75.333 -165 -113 -265 -113
c-106 0 -189.667 38 -251 114s-92 175.333 -92 298c0 118.667 32.5 217.834 97.5 297.501s149.167 119.5 252.5 119.5c87.333 0 162.333 -18.333 225 -55z" />
    <glyph glyph-name="ordfeminine" unicode="&#xaa;" horiz-adv-x="879" 
d="M556 881c-14 -25.333 -39.002 -46.1689 -75.002 -62.502s-71 -24.5 -105 -24.5c-67.333 0 -122.166 18.333 -164.499 55s-63.5 86.334 -63.5 149.001c0 75.333 29.833 133 89.5 173s138.834 60 237.501 60c16 0 34.667 -2 56 -6c0 39.333 -12.833 71 -38.5 95
s-58.5 36 -98.5 36c-54 0 -104.667 -11.667 -152 -35l-40 126c61.333 29.333 128.666 44 201.999 44c74.667 0 134.834 -14.5 180.501 -43.5s76.834 -70.833 93.501 -125.5s25 -166 25 -334c0 -71.333 19.333 -120.666 58 -147.999c-30 -30.667 -67.667 -46 -113 -46
c-42.667 0 -73.334 29 -92.001 87zM532.998 1111c-26 3.33301 -43.333 5 -52 5c-108.667 0 -163 -33.667 -163 -101c0 -60.667 28.333 -91 85 -91c86.667 0 130 40 130 120v67z" />
    <glyph glyph-name="guillemotleft" unicode="&#xab;" 
d="M99 519v96l415 285v-197l-189 -140l189 -124v-197zM588 519v96l415 285v-197l-189 -140l189 -124v-197z" />
    <glyph glyph-name="logicalnot" unicode="&#xac;" 
d="M1062 966v-556h-201v355h-697v201h898z" />
    <glyph glyph-name="sfthyphen" unicode="&#xad;" horiz-adv-x="752" 
d="M109 476v235h529v-235h-529z" />
    <glyph glyph-name="registered" unicode="&#xae;" horiz-adv-x="1460" 
d="M75 661c0 194.667 68.833 360.667 206.5 498s303.834 206 498.501 206s360.667 -68.667 498 -206s206 -303.333 206 -498s-68.667 -360.834 -206 -498.501s-303.333 -206.5 -498 -206.5s-360.834 68.833 -498.501 206.5s-206.5 303.834 -206.5 498.501zM245 661
c0 -147.333 52.333 -273.333 157 -378s230.667 -157 378 -157s273.166 52.167 377.499 156.5s156.5 230.5 156.5 378.5c0 147.333 -52.167 273.166 -156.5 377.499s-230.166 156.5 -377.499 156.5c-148 0 -274.167 -52.167 -378.5 -156.5s-156.5 -230.166 -156.5 -377.499z
M940 267l-190 323h-66v-323h-162v805h220c198 0 297 -78.333 297 -235c0 -96.667 -44.333 -168.667 -133 -216l214 -354h-180zM742 926h-58v-197c62.667 0 105.167 1.66699 127.5 5s38.833 12.5 49.5 27.5s16 37.833 16 68.5c0 64 -45 96 -135 96z" />
    <glyph glyph-name="overscore" unicode="&#xaf;" 
d="M-8 1466v209h1215v-209h-1215z" />
    <glyph glyph-name="degree" unicode="&#xb0;" 
d="M387 1282c0 66 23.667 122.333 71 169s104.333 70 171 70s123.5 -23.333 170.5 -70s70.5 -103 70.5 -169s-23.5 -122.5 -70.5 -169.5s-103.833 -70.5 -170.5 -70.5s-123.667 23.5 -171 70.5s-71 103.5 -71 169.5zM520 1282c0 -30 10.667 -55.667 32 -77s47 -32 77 -32
s55.667 10.667 77 32s32 47 32 77s-10.667 55.667 -32 77s-47 32 -77 32s-55.667 -10.667 -77 -32s-32 -47 -32 -77z" />
    <glyph glyph-name="plusminus" unicode="&#xb1;" 
d="M713 535v-334h349v-201h-898v201h348v334h-348v201h348v343h201v-343h349v-201h-349z" />
    <glyph glyph-name="twosuperior" unicode="&#xb2;" horiz-adv-x="924" 
d="M154 565l0.000976562 63l271 421c54 84 81 153 81 207c0 23.333 -11.833 44.5 -35.5 63.5s-51.167 28.5 -82.5 28.5c-70 0 -125.333 -33.667 -166 -101l-109 103c48.667 113.333 145 170 289 170c93.333 0 165.666 -23.167 216.999 -69.5s77 -107.833 77 -184.5
c0 -50.667 -14.833 -112 -44.5 -184s-98.5 -185 -206.5 -339h309v-178h-600z" />
    <glyph glyph-name="threesuperior" unicode="&#xb3;" horiz-adv-x="929" 
d="M147 651l92.001 159.001c44.667 -50 95.667 -75 153 -75c88.667 0 133 37.333 133 112c0 88.667 -48 133 -144 133h-40v162h36c78.667 0 118 36.333 118 109c0 59.333 -36.333 89 -109 89c-47.333 0 -90.333 -21.667 -129 -65l-85 144
c51.333 67.333 125.666 101 222.999 101c84.667 0 154.167 -23.5 208.5 -70.5s81.5 -106.833 81.5 -179.5c0 -84.667 -33 -152 -99 -202c86 -50.667 129 -127.334 129 -230.001c0 -90.667 -28.833 -160.5 -86.5 -209.5s-137.167 -73.5 -238.5 -73.5c-94 0 -175 32 -243 96z
" />
    <glyph glyph-name="acute" unicode="&#xb4;" 
d="M817 1508l-226 -293h-190l169 293h247z" />
    <glyph glyph-name="mu1" unicode="&#xb5;" horiz-adv-x="1120" 
d="M340 -420h-250v1491h250v-676c0 -137.333 61.667 -206 185 -206c56.667 0 109.334 14.667 158.001 44s81 63.333 97 102v736h250v-1072h-250v90c-86 -72.667 -185 -109 -297 -109c-56.667 0 -104.334 14.333 -143.001 43v-443z" />
    <glyph glyph-name="paragraph" unicode="&#xb6;" horiz-adv-x="1074" 
d="M778 -250v1616h-158v-1616h-154v893c-232 0 -348 144.667 -348 434c0 117.333 27 215.333 81 294s129.333 118 226 118h507v-1739h-154z" />
    <glyph glyph-name="middot" unicode="&#xb7;" horiz-adv-x="752" 
d="M205 741c0 50 17.5 92.5 52.5 127.5s77.5 52.5 127.5 52.5s92.5 -17.5 127.5 -52.5s52.5 -77.5 52.5 -127.5s-17.5 -92.667 -52.5 -128s-77.5 -53 -127.5 -53s-92.5 17.667 -127.5 53s-52.5 78 -52.5 128z" />
    <glyph glyph-name="cedilla" unicode="&#xb8;" 
d="M465 -425l-41 127c22.667 -6 46 -9 70 -9c87.333 0 131 30.333 131 91c0 22 -6.83301 43.333 -20.5 64s-30.834 33.667 -51.501 39l85 89c120 -24.667 180 -93.667 180 -207c0 -64 -23.667 -114.167 -71 -150.5s-108.666 -54.5 -183.999 -54.5
c-34 0 -66.667 3.66699 -98 11z" />
    <glyph glyph-name="onesuperior" unicode="&#xb9;" horiz-adv-x="924" 
d="M409 565v651l-188 -112v184c138.667 70 237.667 143.333 297 220h81v-943h-190z" />
    <glyph glyph-name="ordmasculine" unicode="&#xba;" horiz-adv-x="879" 
d="M105 1144c0 102 29.668 185.333 89.001 250s137.666 97 234.999 97c101.333 0 180.5 -31.167 237.5 -93.5s85.5 -146.833 85.5 -253.5c0 -105.333 -28.833 -190 -86.5 -254s-136.5 -96 -236.5 -96s-179 31.833 -237 95.5s-87 148.5 -87 254.5zM291.001 1144
c0 -131.333 46 -197 138 -197c91.333 0 137 65.667 137 197c0 129.333 -45.667 194 -137 194c-92 0 -138 -64.667 -138 -194z" />
    <glyph glyph-name="guillemotright" unicode="&#xbb;" 
d="M139 242v197l189 124l-189 140v197l415 -285v-96zM628 242v197l189 124l-189 140v197l415 -285v-96z" />
    <glyph glyph-name="onequarter" unicode="&#xbc;" horiz-adv-x="1668" 
d="M470 565l-190 0.000976562v651l-188 -112v184c137.333 69.333 236.333 142.666 297 219.999h81v-943zM1329 1491l-882 -1526h-168l884 1526h166zM1482 230.001v-230h-190v230h-400v111l490 602h100v-559h89v-154h-89zM1292 642.001l-198 -258h198v258z" />
    <glyph glyph-name="onehalf" unicode="&#xbd;" horiz-adv-x="1668" 
d="M273 565v651l-188 -112v184c138 70 237 143.333 297 220h81v-943h-190zM380 -35h-168l884 1526h166zM1008 0l0.000976562 63l271 421c54 84 81 153 81 207c0 23.333 -12 44.5 -36 63.5s-51.333 28.5 -82 28.5c-70 0 -125.333 -33.667 -166 -101l-109 103
c48.667 113.333 145 170 289 170c93.333 0 165.666 -23.167 216.999 -69.5s77 -107.833 77 -184.5c0 -50.667 -14.833 -112 -44.5 -184s-98.5 -185 -206.5 -339h309v-178h-600z" />
    <glyph glyph-name="threequarters" unicode="&#xbe;" horiz-adv-x="1668" 
d="M63 651l91.001 159.001c45.333 -50 96.666 -75 153.999 -75c88.667 0 133 37.333 133 112c0 88.667 -48 133 -144 133h-40v162h36c78.667 0 118 36.333 118 109c0 59.333 -36.333 89 -109 89c-48 0 -91 -21.667 -129 -65l-86 144c52 67.333 126.667 101 224 101
c84 0 153.333 -23.5 208 -70.5s82 -106.833 82 -179.5c0 -84.667 -33 -152 -99 -202c86 -50.667 129 -127.334 129 -230.001c0 -90 -29 -159.667 -87 -209s-137.333 -74 -238 -74c-94 0 -175 32 -243 96zM1363 1491l-882 -1526h-168l884 1526h166zM1517 230.001v-230h-190
v230h-400v111l490 602h100v-559h89v-154h-89zM1327 642.001l-198 -258h198v258z" />
    <glyph glyph-name="questiondown" unicode="&#xbf;" horiz-adv-x="897" 
d="M513 763c-45.333 0 -83.833 16 -115.5 48s-47.5 70.667 -47.5 116s15.833 84 47.5 116s70.167 48 115.5 48s84 -16 116 -48s48 -70.667 48 -116s-16 -84 -48 -116s-70.667 -48 -116 -48zM821 -319c-85.333 -67.333 -198.334 -100.999 -339.001 -100.999
c-107.333 0 -197.333 30.167 -270 90.5s-109 139.833 -109 238.5c0 49.333 9.83301 99.166 29.5 149.499s67.834 112.166 144.501 185.499s123.167 130.833 139.5 172.5s24.5 83.834 24.5 126.501c0 10.667 -4.66699 38.667 -14 84h192
c1.33301 -4.66699 7.33301 -21.667 18 -51s16 -55 16 -77c0 -42.667 -6 -83.5 -18 -122.5s-28.5 -74.5 -49.5 -106.5s-65.667 -85.5 -134 -160.5s-102.5 -136.5 -102.5 -184.5c0 -93.333 61 -140 183 -140c60 0 122.333 29.667 187 89z" />
    <glyph glyph-name="Agrave" unicode="&#xc0;" horiz-adv-x="1297" 
d="M1005 0l-107 297h-502l-102 -297h-289l584 1485h114l589 -1485h-287zM646 1037l-176 -541h352zM576 1585l-226 293h267l169 -293h-210z" />
    <glyph glyph-name="Aacute" unicode="&#xc1;" horiz-adv-x="1297" 
d="M1005 0l-107 297h-502l-102 -297h-289l584 1485h114l589 -1485h-287zM646 1037l-176 -541h352zM937 1878l-226 -293h-190l169 293h247z" />
    <glyph glyph-name="Acircumflex" unicode="&#xc2;" horiz-adv-x="1297" 
d="M1005 0l-107 297h-502l-102 -297h-289l584 1485h114l589 -1485h-287zM646 1037l-176 -541h352zM824 1585l-157 149l-139 -149h-267l355 315h107l368 -315h-267z" />
    <glyph glyph-name="Atilde" unicode="&#xc3;" horiz-adv-x="1297" 
d="M1005 0l-107 297h-502l-102 -297h-289l584 1485h114l589 -1485h-287zM646 1037l-176 -541h352zM456 1555h-144.999c12.667 76 38.167 137.833 76.5 185.5s85.833 71.5 142.5 71.5c52 0 104 -12.833 156 -38.5s85.333 -38.5 100 -38.5c40.667 0 69.667 25.667 87 77h148
c-25.333 -99.333 -56.333 -167 -93 -203s-82.667 -54 -138 -54c-41.333 0 -88.5 12.833 -141.5 38.5s-87.5 38.5 -103.5 38.5c-34.667 0 -64.334 -25.667 -89.001 -77z" />
    <glyph glyph-name="Adieresis" unicode="&#xc4;" horiz-adv-x="1297" 
d="M1005 0l-107 297h-502l-102 -297h-289l584 1485h114l589 -1485h-287zM646 1037l-176 -541h352zM332 1870c39.333 0 72.833 -14 100.5 -42s41.5 -61.667 41.5 -101s-13.833 -72.833 -41.5 -100.5s-61.167 -41.5 -100.5 -41.5s-73 13.833 -101 41.5s-42 61.167 -42 100.5
s14 73 42 101s61.667 42 101 42zM952 1870c39.333 0 72.833 -14 100.5 -42s41.5 -61.667 41.5 -101s-13.833 -72.833 -41.5 -100.5s-61.167 -41.5 -100.5 -41.5s-73 13.833 -101 41.5s-42 61.167 -42 100.5s14 73 42 101s61.667 42 101 42z" />
    <glyph glyph-name="Aring" unicode="&#xc5;" horiz-adv-x="1297" 
d="M1292 0h-287.002l-107 297h-502l-102 -297h-289l545 1386c-102.667 34 -154 99.333 -154 196c0 60.667 25.333 111 76 151s109.334 60 176.001 60c68.667 0 127.834 -19.667 177.501 -59s74.5 -90 74.5 -152c0 -96.667 -52.667 -162 -158 -196zM646.998 1677
c-29.333 0 -54.333 -8.5 -75 -25.5s-31 -40.5 -31 -70.5c0 -64 35.333 -96 106 -96s106 32 106 96s-35.333 96 -106 96zM821.998 496l-176 541l-176 -541h352z" />
    <glyph glyph-name="AE" unicode="&#xc6;" horiz-adv-x="1915" 
d="M1180 1234v-343h484v-221h-484v-439h664v-231h-924v297h-446l-183 -297h-289l888 1465h965v-231h-675zM920 496v581l-352 -581h352z" />
    <glyph glyph-name="Ccedilla" unicode="&#xc7;" horiz-adv-x="1253" 
d="M1154 1387l-107 -215.002c-58 58 -151.333 87 -280 87c-122 0 -222 -51.167 -300 -153.5s-117 -231.833 -117 -388.5s36.167 -281 108.5 -373s168.833 -138 289.5 -138c138 0 246 49.333 324 148l121 -210c-106 -112.667 -261.333 -169 -466 -169
s-363.667 67.333 -477 202s-170 318.334 -170 551.001c0 216.667 62.833 397.834 188.5 543.501s286.5 218.5 482.5 218.5c168 0 302.333 -34.333 403 -103zM515 -425.002l-41 127c22.667 -6 46 -9 70 -9c87.333 0 131 30.333 131 91c0 22 -6.83301 43.333 -20.5 64
s-30.834 33.667 -51.501 39l85 89c120 -24.667 180 -93.667 180 -207c0 -64 -23.667 -114.167 -71 -150.5s-108.666 -54.5 -183.999 -54.5c-34 0 -66.667 3.66699 -98 11z" />
    <glyph glyph-name="Egrave" unicode="&#xc8;" horiz-adv-x="1165" 
d="M410 1234v-343h484v-221h-484v-439h664v-231h-924v1465h935v-231h-675zM566 1585l-226 293h267l169 -293h-210z" />
    <glyph glyph-name="Eacute" unicode="&#xc9;" horiz-adv-x="1165" 
d="M410 1234v-343h484v-221h-484v-439h664v-231h-924v1465h935v-231h-675zM877 1878l-226 -293h-190l169 293h247z" />
    <glyph glyph-name="Ecircumflex" unicode="&#xca;" horiz-adv-x="1165" 
d="M410 1234v-343h484v-221h-484v-439h664v-231h-924v1465h935v-231h-675zM764 1585l-157 149l-139 -149h-267l355 315h107l368 -315h-267z" />
    <glyph glyph-name="Edieresis" unicode="&#xcb;" horiz-adv-x="1165" 
d="M410 1234v-343h484v-221h-484v-439h664v-231h-924v1465h935v-231h-675zM298 1870c39.333 0 72.833 -14 100.5 -42s41.5 -61.667 41.5 -101s-13.833 -72.833 -41.5 -100.5s-61.167 -41.5 -100.5 -41.5s-73 13.833 -101 41.5s-42 61.167 -42 100.5s14 73 42 101
s61.667 42 101 42zM918 1870c39.333 0 72.833 -14 100.5 -42s41.5 -61.667 41.5 -101s-13.833 -72.833 -41.5 -100.5s-61.167 -41.5 -100.5 -41.5s-73 13.833 -101 41.5s-42 61.167 -42 100.5s14 73 42 101s61.667 42 101 42z" />
    <glyph glyph-name="Igrave" unicode="&#xcc;" horiz-adv-x="570" 
d="M155 0v1465h260v-1465h-260zM241 1585l-226 293h267l169 -293h-210z" />
    <glyph glyph-name="Iacute" unicode="&#xcd;" horiz-adv-x="570" 
d="M155 0v1465h260v-1465h-260zM571 1878l-226 -293h-190l169 293h247z" />
    <glyph glyph-name="Icircumflex" unicode="&#xce;" horiz-adv-x="570" 
d="M155 0v1465h260v-1465h-260zM434 1585l-157 149l-139 -149h-267l355 315h107l368 -315h-267z" />
    <glyph glyph-name="Idieresis" unicode="&#xcf;" horiz-adv-x="570" 
d="M155 0v1465h260v-1465h-260zM-2 1870c39.333 0 72.833 -14 100.5 -42s41.5 -61.667 41.5 -101s-13.833 -72.833 -41.5 -100.5s-61.167 -41.5 -100.5 -41.5s-73 13.833 -101 41.5s-42 61.167 -42 100.5s14 73 42 101s61.667 42 101 42zM618 1870
c39.333 0 72.833 -14 100.5 -42s41.5 -61.667 41.5 -101s-13.833 -72.833 -41.5 -100.5s-61.167 -41.5 -100.5 -41.5s-73 13.833 -101 41.5s-42 61.167 -42 100.5s14 73 42 101s61.667 42 101 42z" />
    <glyph glyph-name="Eth" unicode="&#xd0;" horiz-adv-x="1316" 
d="M150 694h-123.999v204h124v566c207.333 7.33301 337.666 11 390.999 11c213.333 0 382.5 -62.5 507.5 -187.5s187.5 -290.833 187.5 -497.5c0 -526.667 -253.667 -790 -761 -790h-325v694zM547.001 898l0.000976562 -203.999h-137v-457c42 -4 87.333 -6 136 -6
c131.333 0 234.166 47.667 308.499 143s111.5 228.666 111.5 399.999c0 313.333 -145.667 470 -437 470c-28 0 -67.667 -2.33301 -119 -7v-339h137z" />
    <glyph glyph-name="Ntilde" unicode="&#xd1;" horiz-adv-x="1367" 
d="M1111 -20l-711 927v-908h-250v1466h125l692 -884v884h250v-1485h-106zM466 1555h-144.999c12.667 76 38.167 137.833 76.5 185.5s85.833 71.5 142.5 71.5c52 0 104 -12.833 156 -38.5s85.333 -38.5 100 -38.5c40.667 0 69.667 25.667 87 77h148
c-25.333 -99.333 -56.333 -167 -93 -203s-82.667 -54 -138 -54c-41.333 0 -88.5 12.833 -141.5 38.5s-87.5 38.5 -103.5 38.5c-34.667 0 -64.334 -25.667 -89.001 -77z" />
    <glyph glyph-name="Ograve" unicode="&#xd2;" horiz-adv-x="1440" 
d="M80 745c0 208.667 57.168 385.167 171.501 529.5s267.166 216.5 458.499 216.5c210.667 0 371.667 -65.333 483 -196s167 -314 167 -550s-58.167 -423.333 -174.5 -562s-281.5 -208 -495.5 -208c-196.667 0 -347.5 68.667 -452.5 206s-157.5 325.333 -157.5 564z
M350.001 745c0 -171.333 29 -304 87 -398s142.333 -141 253 -141c130 0 229.167 46 297.5 138s102.5 225.667 102.5 401c0 343.333 -126.667 515 -380 515c-116 0 -205 -46.5 -267 -139.5s-93 -218.167 -93 -375.5zM666.001 1585l-226 293h267l169 -293h-210z" />
    <glyph glyph-name="Oacute" unicode="&#xd3;" horiz-adv-x="1440" 
d="M80 745c0 208.667 57.168 385.167 171.501 529.5s267.166 216.5 458.499 216.5c210.667 0 371.667 -65.333 483 -196s167 -314 167 -550s-58.167 -423.333 -174.5 -562s-281.5 -208 -495.5 -208c-196.667 0 -347.5 68.667 -452.5 206s-157.5 325.333 -157.5 564z
M350.001 745c0 -171.333 29 -304 87 -398s142.333 -141 253 -141c130 0 229.167 46 297.5 138s102.5 225.667 102.5 401c0 343.333 -126.667 515 -380 515c-116 0 -205 -46.5 -267 -139.5s-93 -218.167 -93 -375.5zM997.001 1878l-226 -293h-190l169 293h247z" />
    <glyph glyph-name="Ocircumflex" unicode="&#xd4;" horiz-adv-x="1440" 
d="M80 745c0 208.667 57.168 385.167 171.501 529.5s267.166 216.5 458.499 216.5c210.667 0 371.667 -65.333 483 -196s167 -314 167 -550s-58.167 -423.333 -174.5 -562s-281.5 -208 -495.5 -208c-196.667 0 -347.5 68.667 -452.5 206s-157.5 325.333 -157.5 564z
M350.001 745c0 -171.333 29 -304 87 -398s142.333 -141 253 -141c130 0 229.167 46 297.5 138s102.5 225.667 102.5 401c0 343.333 -126.667 515 -380 515c-116 0 -205 -46.5 -267 -139.5s-93 -218.167 -93 -375.5zM884.001 1585l-157 149l-139 -149h-267l355 315h107
l368 -315h-267z" />
    <glyph glyph-name="Otilde" unicode="&#xd5;" horiz-adv-x="1440" 
d="M80 745c0 208.667 57.168 385.167 171.501 529.5s267.166 216.5 458.499 216.5c210.667 0 371.667 -65.333 483 -196s167 -314 167 -550s-58.167 -423.333 -174.5 -562s-281.5 -208 -495.5 -208c-196.667 0 -347.5 68.667 -452.5 206s-157.5 325.333 -157.5 564z
M350.001 745c0 -171.333 29 -304 87 -398s142.333 -141 253 -141c130 0 229.167 46 297.5 138s102.5 225.667 102.5 401c0 343.333 -126.667 515 -380 515c-116 0 -205 -46.5 -267 -139.5s-93 -218.167 -93 -375.5zM506.001 1555h-144.999
c12.667 76 38.167 137.833 76.5 185.5s85.833 71.5 142.5 71.5c52 0 104 -12.833 156 -38.5s85.333 -38.5 100 -38.5c40.667 0 69.667 25.667 87 77h148c-25.333 -99.333 -56.333 -167 -93 -203s-82.667 -54 -138 -54c-41.333 0 -88.5 12.833 -141.5 38.5
s-87.5 38.5 -103.5 38.5c-34.667 0 -64.334 -25.667 -89.001 -77z" />
    <glyph glyph-name="Odieresis" unicode="&#xd6;" horiz-adv-x="1440" 
d="M80 745c0 208.667 57.168 385.167 171.501 529.5s267.166 216.5 458.499 216.5c210.667 0 371.667 -65.333 483 -196s167 -314 167 -550s-58.167 -423.333 -174.5 -562s-281.5 -208 -495.5 -208c-196.667 0 -347.5 68.667 -452.5 206s-157.5 325.333 -157.5 564z
M350.001 745c0 -171.333 29 -304 87 -398s142.333 -141 253 -141c130 0 229.167 46 297.5 138s102.5 225.667 102.5 401c0 343.333 -126.667 515 -380 515c-116 0 -205 -46.5 -267 -139.5s-93 -218.167 -93 -375.5zM418.001 1870c39.333 0 72.833 -14 100.5 -42
s41.5 -61.667 41.5 -101s-13.833 -72.833 -41.5 -100.5s-61.167 -41.5 -100.5 -41.5s-73 13.833 -101 41.5s-42 61.167 -42 100.5s14 73 42 101s61.667 42 101 42zM1038 1870c39.333 0 72.833 -14 100.5 -42s41.5 -61.667 41.5 -101s-13.833 -72.833 -41.5 -100.5
s-61.167 -41.5 -100.5 -41.5s-73 13.833 -101 41.5s-42 61.167 -42 100.5s14 73 42 101s61.667 42 101 42z" />
    <glyph glyph-name="multiply" unicode="&#xd7;" 
d="M759 629l314 -315l-143 -142l-314 315l-317 -317l-142 141l317 317l-321 321l142 142l321 -321l317 317l143 -141z" />
    <glyph glyph-name="Oslash" unicode="&#xd8;" horiz-adv-x="1400" 
d="M1173 1491l167.001 -0.00195312l-155 -211c103.333 -129.333 155 -307.666 155 -534.999c0 -236 -58.167 -423.333 -174.5 -562s-281.5 -208 -495.5 -208c-144 0 -264 37.667 -360 113l-83 -113h-167l154 210c-102.667 136.667 -154 323.334 -154 560.001
c0 208.667 57.167 385.167 171.5 529.5s267.166 216.5 458.499 216.5c161.333 0 294 -38.667 398 -116zM383.001 414.998l556.999 758c-61.333 58 -144.666 87 -249.999 87c-116 0 -205 -46.5 -267 -139.5s-93 -218.167 -93 -375.5c0 -132 17.667 -242 53 -330zM1020 1055
l-560 -762.999c54.667 -57.333 124.667 -86 210 -86c130 0 229.167 46 297.5 138s102.5 225.667 102.5 401c0 127.333 -16.667 230.666 -50 309.999z" />
    <glyph glyph-name="Ugrave" unicode="&#xd9;" horiz-adv-x="1388" 
d="M150 1465l260 0.000976562v-993c0 -78.667 24 -142.667 72 -192s114 -74 198 -74c94 0 167.167 24.167 219.5 72.5s78.5 114.5 78.5 198.5v988h260v-1008c0 -150.667 -50.5 -268.667 -151.5 -354s-235.833 -128 -404.5 -128c-170 0 -301.167 41.667 -393.5 125
s-138.5 202.666 -138.5 357.999v1007zM646 1585l-226 293h267l169 -293h-210z" />
    <glyph glyph-name="Uacute" unicode="&#xda;" horiz-adv-x="1388" 
d="M150 1465l260 0.000976562v-993c0 -78.667 24 -142.667 72 -192s114 -74 198 -74c94 0 167.167 24.167 219.5 72.5s78.5 114.5 78.5 198.5v988h260v-1008c0 -150.667 -50.5 -268.667 -151.5 -354s-235.833 -128 -404.5 -128c-170 0 -301.167 41.667 -393.5 125
s-138.5 202.666 -138.5 357.999v1007zM977 1878l-226 -293h-190l169 293h247z" />
    <glyph glyph-name="Ucircumflex" unicode="&#xdb;" horiz-adv-x="1388" 
d="M150 1465l260 0.000976562v-993c0 -78.667 24 -142.667 72 -192s114 -74 198 -74c94 0 167.167 24.167 219.5 72.5s78.5 114.5 78.5 198.5v988h260v-1008c0 -150.667 -50.5 -268.667 -151.5 -354s-235.833 -128 -404.5 -128c-170 0 -301.167 41.667 -393.5 125
s-138.5 202.666 -138.5 357.999v1007zM837 1585l-157 149l-139 -149h-267l355 315h107l368 -315h-267z" />
    <glyph glyph-name="Udieresis" unicode="&#xdc;" horiz-adv-x="1388" 
d="M150 1465l260 0.000976562v-993c0 -78.667 24 -142.667 72 -192s114 -74 198 -74c94 0 167.167 24.167 219.5 72.5s78.5 114.5 78.5 198.5v988h260v-1008c0 -150.667 -50.5 -268.667 -151.5 -354s-235.833 -128 -404.5 -128c-170 0 -301.167 41.667 -393.5 125
s-138.5 202.666 -138.5 357.999v1007zM378 1870c39.333 0 72.833 -14 100.5 -42s41.5 -61.667 41.5 -101s-13.833 -72.833 -41.5 -100.5s-61.167 -41.5 -100.5 -41.5s-73 13.833 -101 41.5s-42 61.167 -42 100.5s14 73 42 101s61.667 42 101 42zM998 1870
c39.333 0 72.833 -14 100.5 -42s41.5 -61.667 41.5 -101s-13.833 -72.833 -41.5 -100.5s-61.167 -41.5 -100.5 -41.5s-73 13.833 -101 41.5s-42 61.167 -42 100.5s14 73 42 101s61.667 42 101 42z" />
    <glyph glyph-name="Yacute" unicode="&#xdd;" horiz-adv-x="1256" 
d="M759 601v-601h-260v601l-494 864h276l347 -625l348 625h275zM917 1878l-226 -293h-190l169 293h247z" />
    <glyph glyph-name="Thorn" unicode="&#xde;" horiz-adv-x="1142" 
d="M380 329l-0.00195312 -329h-260v1464l260 2v-202c16.667 0.666992 31.334 1 44.001 1c231.333 0 400.5 -35.5 507.5 -106.5s160.5 -181.833 160.5 -332.5c0 -336 -198 -504 -594 -504c-29.333 0 -68.666 2.33301 -117.999 7zM379.998 1029l-0.00195312 -469
c44 -4.66699 78.667 -7 104 -7c118.667 0 205.334 19.833 260.001 59.5s82 104.167 82 193.5c0 152 -122.333 228 -367 228c-27.333 0 -53.666 -1.66699 -78.999 -5z" />
    <glyph glyph-name="germandbls" unicode="&#xdf;" horiz-adv-x="1119" 
d="M487 12l48.002 197c52 -8 78.333 -12 79 -12c130 0 195 82.667 195 248c0 38 -5.33301 72.333 -16 103s-25.834 57.5 -45.501 80.5s-68.167 63 -145.5 120s-116 116.833 -116 179.5c0 22 25.5 54.333 76.5 97s76.5 88.334 76.5 137.001c0 84.667 -46.333 127 -139 127
c-53.333 0 -90.833 -20 -112.5 -60s-32.5 -114.333 -32.5 -223v-1007h-250v1102c0 126 33.833 225.667 101.5 299s156.834 110 267.501 110c124 0 221.667 -26.333 293 -79s107 -125 107 -217c0 -42 -7.66699 -82.667 -23 -122c-14.667 -38 -37 -75 -67 -111
c-24.667 -29.333 -37.334 -44 -38.001 -44c0 -6.66699 25.333 -22.667 76 -48c164.667 -82.667 247 -226.667 247 -432c0 -146.667 -35 -262.834 -105 -348.501s-170.333 -128.5 -301 -128.5c-54.667 0 -113.334 10.667 -176.001 32z" />
    <glyph glyph-name="agrave" unicode="&#xe0;" horiz-adv-x="1091" 
d="M731 107c-22.667 -37.333 -62.168 -67.833 -118.501 -91.5s-115.166 -35.5 -176.499 -35.5c-115.333 0 -206 28.833 -272 86.5s-99 139.5 -99 245.5c0 124 46.5 221 139.5 291s225.167 105 396.5 105c29.333 0 64 -5 104 -15c0 126 -79.667 189 -239 189
c-94 0 -172.667 -15.667 -236 -47l-54 194c86 41.333 188.333 62 307 62c163.333 0 283 -37.167 359 -111.5s114 -215.166 114 -422.499v-229c0 -142.667 28.667 -232.334 86 -269.001c-20.667 -36 -43.667 -58.167 -69 -66.5s-54.333 -12.5 -87 -12.5
c-36 0 -68.333 13.333 -97 40s-48 55.667 -58 87zM706.999 504c-42.667 8.66699 -74.667 13 -96 13c-197.333 0 -296 -64.667 -296 -194c0 -96 55.667 -144 167 -144c150 0 225 75 225 225v100zM465.999 1215l-226 293h267l169 -293h-210z" />
    <glyph glyph-name="aacute" unicode="&#xe1;" horiz-adv-x="1091" 
d="M731 107c-22.667 -37.333 -62.168 -67.833 -118.501 -91.5s-115.166 -35.5 -176.499 -35.5c-115.333 0 -206 28.833 -272 86.5s-99 139.5 -99 245.5c0 124 46.5 221 139.5 291s225.167 105 396.5 105c29.333 0 64 -5 104 -15c0 126 -79.667 189 -239 189
c-94 0 -172.667 -15.667 -236 -47l-54 194c86 41.333 188.333 62 307 62c163.333 0 283 -37.167 359 -111.5s114 -215.166 114 -422.499v-229c0 -142.667 28.667 -232.334 86 -269.001c-20.667 -36 -43.667 -58.167 -69 -66.5s-54.333 -12.5 -87 -12.5
c-36 0 -68.333 13.333 -97 40s-48 55.667 -58 87zM706.999 504c-42.667 8.66699 -74.667 13 -96 13c-197.333 0 -296 -64.667 -296 -194c0 -96 55.667 -144 167 -144c150 0 225 75 225 225v100zM786.999 1508l-226 -293h-190l169 293h247z" />
    <glyph glyph-name="acircumflex" unicode="&#xe2;" horiz-adv-x="1091" 
d="M731 107c-22.667 -37.333 -62.168 -67.833 -118.501 -91.5s-115.166 -35.5 -176.499 -35.5c-115.333 0 -206 28.833 -272 86.5s-99 139.5 -99 245.5c0 124 46.5 221 139.5 291s225.167 105 396.5 105c29.333 0 64 -5 104 -15c0 126 -79.667 189 -239 189
c-94 0 -172.667 -15.667 -236 -47l-54 194c86 41.333 188.333 62 307 62c163.333 0 283 -37.167 359 -111.5s114 -215.166 114 -422.499v-229c0 -142.667 28.667 -232.334 86 -269.001c-20.667 -36 -43.667 -58.167 -69 -66.5s-54.333 -12.5 -87 -12.5
c-36 0 -68.333 13.333 -97 40s-48 55.667 -58 87zM706.999 504c-42.667 8.66699 -74.667 13 -96 13c-197.333 0 -296 -64.667 -296 -194c0 -96 55.667 -144 167 -144c150 0 225 75 225 225v100zM723.999 1215l-157 149l-139 -149h-267l355 315h107l368 -315h-267z" />
    <glyph glyph-name="atilde" unicode="&#xe3;" horiz-adv-x="1091" 
d="M731 107c-22.667 -37.333 -62.168 -67.833 -118.501 -91.5s-115.166 -35.5 -176.499 -35.5c-115.333 0 -206 28.833 -272 86.5s-99 139.5 -99 245.5c0 124 46.5 221 139.5 291s225.167 105 396.5 105c29.333 0 64 -5 104 -15c0 126 -79.667 189 -239 189
c-94 0 -172.667 -15.667 -236 -47l-54 194c86 41.333 188.333 62 307 62c163.333 0 283 -37.167 359 -111.5s114 -215.166 114 -422.499v-229c0 -142.667 28.667 -232.334 86 -269.001c-20.667 -36 -43.667 -58.167 -69 -66.5s-54.333 -12.5 -87 -12.5
c-36 0 -68.333 13.333 -97 40s-48 55.667 -58 87zM706.999 504c-42.667 8.66699 -74.667 13 -96 13c-197.333 0 -296 -64.667 -296 -194c0 -96 55.667 -144 167 -144c150 0 225 75 225 225v100zM305.999 1185h-144.999c12.667 76 38.167 137.833 76.5 185.5
s85.833 71.5 142.5 71.5c52 0 104 -12.833 156 -38.5s85.333 -38.5 100 -38.5c40.667 0 69.667 25.667 87 77h148c-25.333 -99.333 -56.333 -167 -93 -203s-82.667 -54 -138 -54c-41.333 0 -88.5 12.833 -141.5 38.5s-87.5 38.5 -103.5 38.5
c-34.667 0 -64.334 -25.667 -89.001 -77z" />
    <glyph glyph-name="adieresis" unicode="&#xe4;" horiz-adv-x="1091" 
d="M731 107c-22.667 -37.333 -62.168 -67.833 -118.501 -91.5s-115.166 -35.5 -176.499 -35.5c-115.333 0 -206 28.833 -272 86.5s-99 139.5 -99 245.5c0 124 46.5 221 139.5 291s225.167 105 396.5 105c29.333 0 64 -5 104 -15c0 126 -79.667 189 -239 189
c-94 0 -172.667 -15.667 -236 -47l-54 194c86 41.333 188.333 62 307 62c163.333 0 283 -37.167 359 -111.5s114 -215.166 114 -422.499v-229c0 -142.667 28.667 -232.334 86 -269.001c-20.667 -36 -43.667 -58.167 -69 -66.5s-54.333 -12.5 -87 -12.5
c-36 0 -68.333 13.333 -97 40s-48 55.667 -58 87zM706.999 504c-42.667 8.66699 -74.667 13 -96 13c-197.333 0 -296 -64.667 -296 -194c0 -96 55.667 -144 167 -144c150 0 225 75 225 225v100zM237.999 1500c39.333 0 72.833 -14 100.5 -42s41.5 -61.667 41.5 -101
s-13.833 -72.833 -41.5 -100.5s-61.167 -41.5 -100.5 -41.5s-73 13.833 -101 41.5s-42 61.167 -42 100.5s14 73 42 101s61.667 42 101 42zM857.999 1500c39.333 0 72.833 -14 100.5 -42s41.5 -61.667 41.5 -101s-13.833 -72.833 -41.5 -100.5s-61.167 -41.5 -100.5 -41.5
s-73 13.833 -101 41.5s-42 61.167 -42 100.5s14 73 42 101s61.667 42 101 42z" />
    <glyph glyph-name="aring" unicode="&#xe5;" horiz-adv-x="1091" 
d="M731 107c-22.667 -37.333 -62.168 -67.833 -118.501 -91.5s-115.166 -35.5 -176.499 -35.5c-115.333 0 -206 28.833 -272 86.5s-99 139.5 -99 245.5c0 124 46.5 221 139.5 291s225.167 105 396.5 105c29.333 0 64 -5 104 -15c0 126 -79.667 189 -239 189
c-94 0 -172.667 -15.667 -236 -47l-54 194c86 41.333 188.333 62 307 62c163.333 0 283 -37.167 359 -111.5s114 -215.166 114 -422.499v-229c0 -142.667 28.667 -232.334 86 -269.001c-20.667 -36 -43.667 -58.167 -69 -66.5s-54.333 -12.5 -87 -12.5
c-36 0 -68.333 13.333 -97 40s-48 55.667 -58 87zM706.999 504c-42.667 8.66699 -74.667 13 -96 13c-197.333 0 -296 -64.667 -296 -194c0 -96 55.667 -144 167 -144c150 0 225 75 225 225v100zM504.999 1216c-70 0 -129.501 19.333 -178.501 58s-73.5 89.667 -73.5 153
c0 60.667 25.333 111 76 151s109.334 60 176.001 60c68.667 0 127.834 -19.667 177.501 -59s74.5 -90 74.5 -152s-24.833 -112.667 -74.5 -152s-108.834 -59 -177.501 -59zM503.998 1522c-29.333 0 -54.333 -8.5 -75 -25.5s-31 -40.5 -31 -70.5c0 -64 35.333 -96 106 -96
s106 32 106 96s-35.333 96 -106 96z" />
    <glyph glyph-name="ae" unicode="&#xe6;" horiz-adv-x="1767" 
d="M692 504c-33.333 8.66699 -65.333 13 -96 13c-197.333 0 -296 -64.667 -296 -194c0 -96 55.667 -144 167 -144c150 0 225 75 225 225v100zM1711 459l-775.001 -0.000976562c4.66699 -86.667 37 -154.334 97 -203.001c56.667 -44.667 129.667 -67 219 -67
c113.333 0 200 29.667 260 89l97 -191c-87.333 -71.333 -218.666 -107 -393.999 -107c-126.667 0 -216 22 -268 66l3 -46h-198c-8.66699 22.667 -20.667 57.667 -36 105c-26 -41.333 -70 -73.333 -132 -96c-52 -19.333 -106.333 -29 -163 -29
c-111.333 0 -199.666 27 -264.999 81c-70.667 58.667 -106 142.334 -106 251.001c0 139.333 57 243.333 171 312c93.333 56 215 84 365 84c34 0 68.667 -5 104 -15c0 126.667 -79.667 190 -239 190c-92.667 0 -171.334 -16 -236.001 -48l-54 194
c86 41.333 188.333 62 307 62c189.333 0 319 -49 389 -147c100 98 220 147 360 147c150 0 272.667 -44.333 368 -133c98 -91.333 147 -211.333 147 -360c0 -33.333 -7 -79.666 -21 -138.999zM1221 881.999c-72 0 -132.666 -21.667 -181.999 -65
c-46.667 -41.333 -78 -98 -94 -170h536c-16.667 156.667 -103.334 235 -260.001 235z" />
    <glyph glyph-name="ccedilla" unicode="&#xe7;" horiz-adv-x="1048" 
d="M975 986l-107.001 -186.999c-58.667 55.333 -137.334 83 -236.001 83c-94.667 0 -169.5 -31.5 -224.5 -94.5s-82.5 -150.167 -82.5 -261.5c0 -224.667 107 -337 321 -337c92.667 0 174.334 30.667 245.001 92l92 -197c-72.667 -45.333 -136.167 -74 -190.5 -86
s-118.5 -18 -192.5 -18c-165.333 0 -295.833 48.167 -391.5 144.5s-143.5 230.166 -143.5 401.499c0 168.667 52.333 305 157 409s247.334 156 428.001 156c124.667 0 233 -35 325 -105zM354.999 -424.999l-41 127c22.667 -6 46 -9 70 -9c87.333 0 131 30.333 131 91
c0 22 -6.83301 43.333 -20.5 64s-30.834 33.667 -51.501 39l85 89c120 -24.667 180 -93.667 180 -207c0 -64 -23.667 -114.167 -71 -150.5s-108.666 -54.5 -183.999 -54.5c-34 0 -66.667 3.66699 -98 11z" />
    <glyph glyph-name="egrave" unicode="&#xe8;" horiz-adv-x="1177" 
d="M1091 459l-765 -0.00195312c4.66699 -85.333 34 -151.666 88 -198.999s126.667 -71 218 -71c114 0 200.667 29.667 260 89l97 -191c-88 -71.333 -219.333 -107 -394 -107c-163.333 0 -292.5 47.833 -387.5 143.5s-142.5 229.167 -142.5 400.5
c0 168.667 52.167 305.334 156.5 410.001s229.5 157 375.5 157c155.333 0 280 -46.333 374 -139s141 -210.667 141 -354c0 -30.667 -7 -77 -21 -139zM335 646.998h526.001c-17.333 156.667 -104 235 -260 235c-142.667 0 -231.334 -78.333 -266.001 -235zM576.001 1215
l-226 293h267l169 -293h-210z" />
    <glyph glyph-name="eacute" unicode="&#xe9;" horiz-adv-x="1177" 
d="M1091 459l-765 -0.00195312c4.66699 -85.333 34 -151.666 88 -198.999s126.667 -71 218 -71c114 0 200.667 29.667 260 89l97 -191c-88 -71.333 -219.333 -107 -394 -107c-163.333 0 -292.5 47.833 -387.5 143.5s-142.5 229.167 -142.5 400.5
c0 168.667 52.167 305.334 156.5 410.001s229.5 157 375.5 157c155.333 0 280 -46.333 374 -139s141 -210.667 141 -354c0 -30.667 -7 -77 -21 -139zM335 646.998h526.001c-17.333 156.667 -104 235 -260 235c-142.667 0 -231.334 -78.333 -266.001 -235zM897.001 1508
l-226 -293h-190l169 293h247z" />
    <glyph glyph-name="ecircumflex" unicode="&#xea;" horiz-adv-x="1177" 
d="M1091 459l-765 -0.00195312c4.66699 -85.333 34 -151.666 88 -198.999s126.667 -71 218 -71c114 0 200.667 29.667 260 89l97 -191c-88 -71.333 -219.333 -107 -394 -107c-163.333 0 -292.5 47.833 -387.5 143.5s-142.5 229.167 -142.5 400.5
c0 168.667 52.167 305.334 156.5 410.001s229.5 157 375.5 157c155.333 0 280 -46.333 374 -139s141 -210.667 141 -354c0 -30.667 -7 -77 -21 -139zM335 646.998h526.001c-17.333 156.667 -104 235 -260 235c-142.667 0 -231.334 -78.333 -266.001 -235zM771.001 1215
l-157 149l-139 -149h-267l355 315h107l368 -315h-267z" />
    <glyph glyph-name="edieresis" unicode="&#xeb;" horiz-adv-x="1177" 
d="M1091 459l-765 -0.00195312c4.66699 -85.333 34 -151.666 88 -198.999s126.667 -71 218 -71c114 0 200.667 29.667 260 89l97 -191c-88 -71.333 -219.333 -107 -394 -107c-163.333 0 -292.5 47.833 -387.5 143.5s-142.5 229.167 -142.5 400.5
c0 168.667 52.167 305.334 156.5 410.001s229.5 157 375.5 157c155.333 0 280 -46.333 374 -139s141 -210.667 141 -354c0 -30.667 -7 -77 -21 -139zM335 646.998h526.001c-17.333 156.667 -104 235 -260 235c-142.667 0 -231.334 -78.333 -266.001 -235zM278.001 1500
c39.333 0 72.833 -14 100.5 -42s41.5 -61.667 41.5 -101s-13.833 -72.833 -41.5 -100.5s-61.167 -41.5 -100.5 -41.5s-73 13.833 -101 41.5s-42 61.167 -42 100.5s14 73 42 101s61.667 42 101 42zM898.001 1500c39.333 0 72.833 -14 100.5 -42s41.5 -61.667 41.5 -101
s-13.833 -72.833 -41.5 -100.5s-61.167 -41.5 -100.5 -41.5s-73 13.833 -101 41.5s-42 61.167 -42 100.5s14 73 42 101s61.667 42 101 42z" />
    <glyph glyph-name="igrave" unicode="&#xec;" horiz-adv-x="611" 
d="M202 0v866h-137v205h390v-1071h-253zM291 1215l-226 293h267l169 -293h-210z" />
    <glyph glyph-name="iacute" unicode="&#xed;" horiz-adv-x="611" 
d="M207 0v866h-137v205h390v-1071h-253zM552 1508l-226 -293h-190l169 293h247z" />
    <glyph glyph-name="icircumflex" unicode="&#xee;" horiz-adv-x="611" 
d="M202 0v866h-137v205h390v-1071h-253zM474 1215l-157 149l-139 -149h-267l355 315h107l368 -315h-267z" />
    <glyph glyph-name="idieresis" unicode="&#xef;" horiz-adv-x="611" 
d="M202 0v866h-137v205h390v-1071h-253zM-12 1500c39.333 0 72.833 -14 100.5 -42s41.5 -61.667 41.5 -101s-13.833 -72.833 -41.5 -100.5s-61.167 -41.5 -100.5 -41.5s-73 13.833 -101 41.5s-42 61.167 -42 100.5s14 73 42 101s61.667 42 101 42zM608 1500
c39.333 0 72.833 -14 100.5 -42s41.5 -61.667 41.5 -101s-13.833 -72.833 -41.5 -100.5s-61.167 -41.5 -100.5 -41.5s-73 13.833 -101 41.5s-42 61.167 -42 100.5s14 73 42 101s61.667 42 101 42z" />
    <glyph glyph-name="eth" unicode="&#xf0;" horiz-adv-x="1159" 
d="M667 1091c-26.667 42.667 -58 89.333 -94 140l-148 -78l-58 102l136 67c-62.667 70 -135.667 132.667 -219 188h354c24 -24 49 -51 75 -81l162 88l58 -96l-153 -82c122 -181.333 204.833 -331.5 248.5 -450.5s65.5 -233.167 65.5 -342.5
c0 -170.667 -45.333 -307.667 -136 -411s-216.667 -155 -378 -155s-287.5 51.5 -378.5 154.5s-136.5 240.167 -136.5 411.5c0 161.333 46.333 293.5 139 396.5s218 154.5 376 154.5c27.333 0 56.333 -2 87 -6zM315 545.999c0 -230 88.334 -344.999 265.001 -344.999
c85.333 0 150.666 31.167 195.999 93.5s68 146.166 68 251.499c0 226 -88 339 -264 339c-84 0 -149.167 -30.5 -195.5 -91.5s-69.5 -143.5 -69.5 -247.5z" />
    <glyph glyph-name="ntilde" unicode="&#xf1;" horiz-adv-x="1209" 
d="M824 0l0.000976562 619.001c0 91.333 -17.5 158 -52.5 200s-92.167 63 -171.5 63c-36.667 0 -75.834 -10.333 -117.501 -31s-74.167 -46.334 -97.5 -77.001v-774h-250v1071h180l46 -100c68 80 168.333 120 301 120c127.333 0 227.833 -38.167 301.5 -114.5
s110.5 -182.833 110.5 -319.5v-657h-250zM396.001 1185h-144.999c12.667 76 38.167 137.833 76.5 185.5s85.833 71.5 142.5 71.5c52 0 104 -12.833 156 -38.5s85.333 -38.5 100 -38.5c40.667 0 69.667 25.667 87 77h148c-25.333 -99.333 -56.333 -167 -93 -203
s-82.667 -54 -138 -54c-41.333 0 -88.5 12.833 -141.5 38.5s-87.5 38.5 -103.5 38.5c-34.667 0 -64.334 -25.667 -89.001 -77z" />
    <glyph glyph-name="ograve" unicode="&#xf2;" horiz-adv-x="1159" 
d="M65 538c0 163.333 47.167 296.333 141.5 399s218.833 154 373.5 154c162.667 0 289 -49.333 379 -148s135 -233.667 135 -405c0 -170.667 -45.833 -306.334 -137.5 -407.001s-217.167 -151 -376.5 -151c-162.667 0 -289.167 50.833 -379.5 152.5
s-135.5 236.834 -135.5 405.501zM325 538c0 -236 85 -353.999 255 -353.999c78 0 139.833 30.667 185.5 92s68.5 148.666 68.5 261.999c0 232.667 -84.667 349 -254 349c-78 0 -140 -30.667 -186 -92s-69 -147 -69 -257zM536 1215l-226 293h267l169 -293h-210z" />
    <glyph glyph-name="oacute" unicode="&#xf3;" horiz-adv-x="1159" 
d="M65 538c0 163.333 47.167 296.333 141.5 399s218.833 154 373.5 154c162.667 0 289 -49.333 379 -148s135 -233.667 135 -405c0 -170.667 -45.833 -306.334 -137.5 -407.001s-217.167 -151 -376.5 -151c-162.667 0 -289.167 50.833 -379.5 152.5
s-135.5 236.834 -135.5 405.501zM325 538c0 -236 85 -353.999 255 -353.999c78 0 139.833 30.667 185.5 92s68.5 148.666 68.5 261.999c0 232.667 -84.667 349 -254 349c-78 0 -140 -30.667 -186 -92s-69 -147 -69 -257zM817 1508l-226 -293h-190l169 293h247z" />
    <glyph glyph-name="ocircumflex" unicode="&#xf4;" horiz-adv-x="1159" 
d="M65 538c0 163.333 47.167 296.333 141.5 399s218.833 154 373.5 154c162.667 0 289 -49.333 379 -148s135 -233.667 135 -405c0 -170.667 -45.833 -306.334 -137.5 -407.001s-217.167 -151 -376.5 -151c-162.667 0 -289.167 50.833 -379.5 152.5
s-135.5 236.834 -135.5 405.501zM325 538c0 -236 85 -353.999 255 -353.999c78 0 139.833 30.667 185.5 92s68.5 148.666 68.5 261.999c0 232.667 -84.667 349 -254 349c-78 0 -140 -30.667 -186 -92s-69 -147 -69 -257zM724 1215l-157 149l-139 -149h-267l355 315h107
l368 -315h-267z" />
    <glyph glyph-name="otilde" unicode="&#xf5;" horiz-adv-x="1159" 
d="M65 538c0 163.333 47.167 296.333 141.5 399s218.833 154 373.5 154c162.667 0 289 -49.333 379 -148s135 -233.667 135 -405c0 -170.667 -45.833 -306.334 -137.5 -407.001s-217.167 -151 -376.5 -151c-162.667 0 -289.167 50.833 -379.5 152.5
s-135.5 236.834 -135.5 405.501zM325 538c0 -236 85 -353.999 255 -353.999c78 0 139.833 30.667 185.5 92s68.5 148.666 68.5 261.999c0 232.667 -84.667 349 -254 349c-78 0 -140 -30.667 -186 -92s-69 -147 -69 -257zM386 1185h-144.999
c12.667 76 38.167 137.833 76.5 185.5s85.833 71.5 142.5 71.5c52 0 104 -12.833 156 -38.5s85.333 -38.5 100 -38.5c40.667 0 69.667 25.667 87 77h148c-25.333 -99.333 -56.333 -167 -93 -203s-82.667 -54 -138 -54c-41.333 0 -88.5 12.833 -141.5 38.5
s-87.5 38.5 -103.5 38.5c-34.667 0 -64.334 -25.667 -89.001 -77z" />
    <glyph glyph-name="odieresis" unicode="&#xf6;" horiz-adv-x="1159" 
d="M65 538c0 163.333 47.167 296.333 141.5 399s218.833 154 373.5 154c162.667 0 289 -49.333 379 -148s135 -233.667 135 -405c0 -170.667 -45.833 -306.334 -137.5 -407.001s-217.167 -151 -376.5 -151c-162.667 0 -289.167 50.833 -379.5 152.5
s-135.5 236.834 -135.5 405.501zM325 538c0 -236 85 -353.999 255 -353.999c78 0 139.833 30.667 185.5 92s68.5 148.666 68.5 261.999c0 232.667 -84.667 349 -254 349c-78 0 -140 -30.667 -186 -92s-69 -147 -69 -257zM288 1500c39.333 0 72.833 -14 100.5 -42
s41.5 -61.667 41.5 -101s-13.833 -72.833 -41.5 -100.5s-61.167 -41.5 -100.5 -41.5s-73 13.833 -101 41.5s-42 61.167 -42 100.5s14 73 42 101s61.667 42 101 42zM908 1500c39.333 0 72.833 -14 100.5 -42s41.5 -61.667 41.5 -101s-13.833 -72.833 -41.5 -100.5
s-61.167 -41.5 -100.5 -41.5s-73 13.833 -101 41.5s-42 61.167 -42 100.5s14 73 42 101s61.667 42 101 42z" />
    <glyph glyph-name="divide" unicode="&#xf7;" 
d="M763 1020c0 -41.333 -14.667 -76.833 -44 -106.5s-64.666 -44.5 -105.999 -44.5s-76.666 14.833 -105.999 44.5s-44 65.167 -44 106.5s14.667 76.666 44 105.999s64.666 44 105.999 44s76.666 -14.667 105.999 -44s44 -64.666 44 -105.999zM1062 736v-201h-898v201h898z
M763 230c0 -41.333 -14.667 -76.833 -44 -106.5s-64.666 -44.5 -105.999 -44.5s-76.666 14.833 -105.999 44.5s-44 65.167 -44 106.5s14.667 76.666 44 105.999s64.666 44 105.999 44s76.666 -14.667 105.999 -44s44 -64.666 44 -105.999z" />
    <glyph glyph-name="oslash" unicode="&#xf8;" horiz-adv-x="1159" 
d="M1094 1091l-123.001 -162c82 -97.333 123 -227.666 123 -390.999c0 -170.667 -45.833 -306.334 -137.5 -407.001s-217.167 -151 -376.5 -151c-107.333 0 -199.666 23 -276.999 69l-53 -69h-185l125 165c-83.333 100 -125 231 -125 393
c0 163.333 47.167 296.333 141.5 399s218.833 154 373.5 154c108 0 200.667 -22.333 278 -67l51 67h185zM723.999 847c-38 26.667 -86 40 -144 40c-78 0 -140 -30.667 -186 -92s-69 -147 -69 -257c0 -73.333 7.66699 -135 23 -185zM434.999 224
c38 -26.667 86.333 -39.999 145 -39.999c78 0 139.833 30.667 185.5 92s68.5 148.666 68.5 261.999c0 70.667 -7.66699 130.667 -23 180z" />
    <glyph glyph-name="ugrave" unicode="&#xf9;" horiz-adv-x="1210" 
d="M825 -1l-0.000976562 90c-35.333 -30 -84 -55.667 -146 -77s-119 -32 -171 -32c-248.667 0 -373 132 -373 396v695h250v-676c0 -137.333 61.667 -206 185 -206c56.667 0 109.334 14.667 158.001 44s81 63.333 97 102v736h250v-1072h-250zM555.999 1215l-226 293h267
l169 -293h-210z" />
    <glyph glyph-name="uacute" unicode="&#xfa;" horiz-adv-x="1210" 
d="M825 -1l-0.000976562 90c-35.333 -30 -84 -55.667 -146 -77s-119 -32 -171 -32c-248.667 0 -373 132 -373 396v695h250v-676c0 -137.333 61.667 -206 185 -206c56.667 0 109.334 14.667 158.001 44s81 63.333 97 102v736h250v-1072h-250zM866.999 1508l-226 -293h-190
l169 293h247z" />
    <glyph glyph-name="ucircumflex" unicode="&#xfb;" horiz-adv-x="1210" 
d="M825 -1l-0.000976562 90c-35.333 -30 -84 -55.667 -146 -77s-119 -32 -171 -32c-248.667 0 -373 132 -373 396v695h250v-676c0 -137.333 61.667 -206 185 -206c56.667 0 109.334 14.667 158.001 44s81 63.333 97 102v736h250v-1072h-250zM753.999 1215l-157 149
l-139 -149h-267l355 315h107l368 -315h-267z" />
    <glyph glyph-name="udieresis" unicode="&#xfc;" horiz-adv-x="1210" 
d="M825 -1l-0.000976562 90c-35.333 -30 -84 -55.667 -146 -77s-119 -32 -171 -32c-248.667 0 -373 132 -373 396v695h250v-676c0 -137.333 61.667 -206 185 -206c56.667 0 109.334 14.667 158.001 44s81 63.333 97 102v736h250v-1072h-250zM297.999 1500
c39.333 0 72.833 -14 100.5 -42s41.5 -61.667 41.5 -101s-13.833 -72.833 -41.5 -100.5s-61.167 -41.5 -100.5 -41.5s-73 13.833 -101 41.5s-42 61.167 -42 100.5s14 73 42 101s61.667 42 101 42zM917.999 1500c39.333 0 72.833 -14 100.5 -42s41.5 -61.667 41.5 -101
s-13.833 -72.833 -41.5 -100.5s-61.167 -41.5 -100.5 -41.5s-73 13.833 -101 41.5s-42 61.167 -42 100.5s14 73 42 101s61.667 42 101 42z" />
    <glyph glyph-name="yacute" unicode="&#xfd;" horiz-adv-x="1093" 
d="M609 -172c-26.667 -71.333 -83.832 -130.5 -171.499 -177.5s-189.834 -70.5 -306.501 -70.5v221c192.667 0 289 48.333 289 145c0 64 -26.667 162 -80 294l-335 831h259l292 -740l263 740h259zM817.002 1508l-226 -293h-190l169 293h247z" />
    <glyph glyph-name="thorn" unicode="&#xfe;" horiz-adv-x="1193" 
d="M365 27v-447h-250v1890l250 60v-531c62.667 61.333 139.667 92 231 92c341.333 0 512 -188 512 -564c0 -175.333 -47.167 -310.333 -141.5 -405s-223.166 -142 -386.499 -142c-78.667 0 -150.334 15.667 -215.001 47zM365 809l0.000976562 -563.001
c45.333 -36.667 98.333 -55 159 -55c115.333 0 198.166 27.5 248.499 82.5s75.5 141.833 75.5 260.5c0 126.667 -25 215.834 -75 267.501s-132.667 77.5 -248 77.5c-60 0 -113.333 -23.333 -160 -70z" />
    <glyph glyph-name="ydieresis" unicode="&#xff;" horiz-adv-x="1093" 
d="M609 -172c-26.667 -71.333 -83.832 -130.5 -171.499 -177.5s-189.834 -70.5 -306.501 -70.5v221c192.667 0 289 48.333 289 145c0 64 -26.667 162 -80 294l-335 831h259l292 -740l263 740h259zM230.002 1500c39.333 0 72.833 -14 100.5 -42s41.5 -61.667 41.5 -101
s-13.833 -72.833 -41.5 -100.5s-61.167 -41.5 -100.5 -41.5s-73 13.833 -101 41.5s-42 61.167 -42 100.5s14 73 42 101s61.667 42 101 42zM850.002 1500c39.333 0 72.833 -14 100.5 -42s41.5 -61.667 41.5 -101s-13.833 -72.833 -41.5 -100.5s-61.167 -41.5 -100.5 -41.5
s-73 13.833 -101 41.5s-42 61.167 -42 100.5s14 73 42 101s61.667 42 101 42z" />
    <glyph glyph-name="Amacron" unicode="&#x100;" horiz-adv-x="1297" 
d="M1005 0l-107 297h-502l-102 -297h-289l584 1485h114l589 -1485h-287zM646 1037l-176 -541h352zM1001 1766v-181h-738v181h738z" />
    <glyph glyph-name="amacron" unicode="&#x101;" horiz-adv-x="1091" 
d="M731 107c-22.667 -37.333 -62.168 -67.833 -118.501 -91.5s-115.166 -35.5 -176.499 -35.5c-115.333 0 -206 28.833 -272 86.5s-99 139.5 -99 245.5c0 124 46.5 221 139.5 291s225.167 105 396.5 105c29.333 0 64 -5 104 -15c0 126 -79.667 189 -239 189
c-94 0 -172.667 -15.667 -236 -47l-54 194c86 41.333 188.333 62 307 62c163.333 0 283 -37.167 359 -111.5s114 -215.166 114 -422.499v-229c0 -142.667 28.667 -232.334 86 -269.001c-20.667 -36 -43.667 -58.167 -69 -66.5s-54.333 -12.5 -87 -12.5
c-36 0 -68.333 13.333 -97 40s-48 55.667 -58 87zM706.999 504c-42.667 8.66699 -74.667 13 -96 13c-197.333 0 -296 -64.667 -296 -194c0 -96 55.667 -144 167 -144c150 0 225 75 225 225v100zM870.999 1396v-181h-738v181h738z" />
    <glyph glyph-name="Abreve" unicode="&#x102;" horiz-adv-x="1297" 
d="M1005 0l-107 297h-502l-102 -297h-289l584 1485h114l589 -1485h-287zM646 1037l-176 -541h352zM958 1910c0 -92.667 -32 -169.999 -96 -231.999s-146.667 -93 -248 -93c-97.333 0 -174.833 29.667 -232.5 89s-86.5 138 -86.5 236h141
c0 -42.667 17.5 -76.834 52.5 -102.501s76.833 -38.5 125.5 -38.5c60 0 108.5 12.5 145.5 37.5s55.5 59.5 55.5 103.5h143z" />
    <glyph glyph-name="abreve" unicode="&#x103;" horiz-adv-x="1091" 
d="M731 107c-22.667 -37.333 -62.168 -67.833 -118.501 -91.5s-115.166 -35.5 -176.499 -35.5c-115.333 0 -206 28.833 -272 86.5s-99 139.5 -99 245.5c0 124 46.5 221 139.5 291s225.167 105 396.5 105c29.333 0 64 -5 104 -15c0 126 -79.667 189 -239 189
c-94 0 -172.667 -15.667 -236 -47l-54 194c86 41.333 188.333 62 307 62c163.333 0 283 -37.167 359 -111.5s114 -215.166 114 -422.499v-229c0 -142.667 28.667 -232.334 86 -269.001c-20.667 -36 -43.667 -58.167 -69 -66.5s-54.333 -12.5 -87 -12.5
c-36 0 -68.333 13.333 -97 40s-48 55.667 -58 87zM706.999 504c-42.667 8.66699 -74.667 13 -96 13c-197.333 0 -296 -64.667 -296 -194c0 -96 55.667 -144 167 -144c150 0 225 75 225 225v100zM827.999 1540c0 -92.667 -32 -169.999 -96 -231.999s-146.667 -93 -248 -93
c-97.333 0 -174.833 29.667 -232.5 89s-86.5 138 -86.5 236h141c0 -42.667 17.5 -76.834 52.5 -102.501s76.833 -38.5 125.5 -38.5c60 0 108.5 12.5 145.5 37.5s55.5 59.5 55.5 103.5h143z" />
    <glyph glyph-name="Aogonek" unicode="&#x104;" horiz-adv-x="1297" 
d="M1004 2l-106.001 295h-502l-102 -297h-289l584 1485h114l589 -1485h-45c-14 0 -34.5 -14 -61.5 -42s-40.5 -63.333 -40.5 -106c0 -29.333 12.667 -53.833 38 -73.5s54.333 -29.5 87 -29.5c34.667 0 66 13 94 39l65 -124c-52 -38.667 -119.333 -58 -202 -58
c-81.333 0 -145.666 19.833 -192.999 59.5s-71 91.167 -71 154.5c0 72 13.667 132.667 41 182zM645.999 1037l-176 -541h352z" />
    <glyph glyph-name="aogonek" unicode="&#x105;" horiz-adv-x="1091" 
d="M759 53c-13.333 18.667 -22.6689 36.666 -28.002 53.999c-22.667 -37.333 -62.167 -67.833 -118.5 -91.5s-115.166 -35.5 -176.499 -35.5c-115.333 0 -206 28.833 -272 86.5s-99 139.5 -99 245.5c0 124 46.5 221 139.5 291s225.167 105 396.5 105c29.333 0 64 -5 104 -15
c0 126 -79.667 189 -239 189c-94 0 -172.667 -15.667 -236 -47l-54 194c86 41.333 188.333 62 307 62c163.333 0 283 -37.167 359 -111.5s114 -215.166 114 -422.499v-229c0 -142.667 28.667 -232.334 86 -269.001c-18 -30 -35.5 -49.667 -52.5 -59
s-37.167 -15.333 -60.5 -18c-44.667 -32 -67 -75.333 -67 -130c0 -29.333 12.667 -53.833 38 -73.5s54.333 -29.5 87 -29.5c34.667 0 66 13 94 39l65 -124c-52 -38.667 -119.333 -58 -202 -58c-81.333 0 -145.666 19.833 -192.999 59.5s-71 91.167 -71 154.5
c0 98.667 26.333 176.334 79 233.001zM706.997 503.999c-42.667 8.66699 -74.667 13 -96 13c-197.333 0 -296 -64.667 -296 -194c0 -96 55.667 -144 167 -144c150 0 225 75 225 225v100z" />
    <glyph glyph-name="Cacute" unicode="&#x106;" horiz-adv-x="1253" 
d="M1154 1387l-107 -215.002c-58 58 -151.333 87 -280 87c-122 0 -222 -51.167 -300 -153.5s-117 -231.833 -117 -388.5s36.167 -281 108.5 -373s168.833 -138 289.5 -138c138 0 246 49.333 324 148l121 -210c-106 -112.667 -261.333 -169 -466 -169
s-363.667 67.333 -477 202s-170 318.334 -170 551.001c0 216.667 62.833 397.834 188.5 543.501s286.5 218.5 482.5 218.5c168 0 302.333 -34.333 403 -103zM997 1878l-226 -293h-190l169 293h247z" />
    <glyph glyph-name="cacute" unicode="&#x107;" horiz-adv-x="1048" 
d="M975 986l-107.001 -186.999c-58.667 55.333 -137.334 83 -236.001 83c-94.667 0 -169.5 -31.5 -224.5 -94.5s-82.5 -150.167 -82.5 -261.5c0 -224.667 107 -337 321 -337c92.667 0 174.334 30.667 245.001 92l92 -197c-72.667 -45.333 -136.167 -74 -190.5 -86
s-118.5 -18 -192.5 -18c-165.333 0 -295.833 48.167 -391.5 144.5s-143.5 230.166 -143.5 401.499c0 168.667 52.333 305 157 409s247.334 156 428.001 156c124.667 0 233 -35 325 -105zM836.999 1508l-226 -293h-190l169 293h247z" />
    <glyph glyph-name="Ccircumflex" unicode="&#x108;" horiz-adv-x="1253" 
d="M1154 1387l-107 -215.002c-58 58 -151.333 87 -280 87c-122 0 -222 -51.167 -300 -153.5s-117 -231.833 -117 -388.5s36.167 -281 108.5 -373s168.833 -138 289.5 -138c138 0 246 49.333 324 148l121 -210c-106 -112.667 -261.333 -169 -466 -169
s-363.667 67.333 -477 202s-170 318.334 -170 551.001c0 216.667 62.833 397.834 188.5 543.501s286.5 218.5 482.5 218.5c168 0 302.333 -34.333 403 -103zM884 1585l-157 149l-139 -149h-267l355 315h107l368 -315h-267z" />
    <glyph glyph-name="ccircumflex" unicode="&#x109;" horiz-adv-x="1048" 
d="M975 986l-107.001 -186.999c-58.667 55.333 -137.334 83 -236.001 83c-94.667 0 -169.5 -31.5 -224.5 -94.5s-82.5 -150.167 -82.5 -261.5c0 -224.667 107 -337 321 -337c92.667 0 174.334 30.667 245.001 92l92 -197c-72.667 -45.333 -136.167 -74 -190.5 -86
s-118.5 -18 -192.5 -18c-165.333 0 -295.833 48.167 -391.5 144.5s-143.5 230.166 -143.5 401.499c0 168.667 52.333 305 157 409s247.334 156 428.001 156c124.667 0 233 -35 325 -105zM743.999 1215l-157 149l-139 -149h-267l355 315h107l368 -315h-267z" />
    <glyph glyph-name="Cdot" unicode="&#x10a;" horiz-adv-x="1253" 
d="M1154 1387l-107 -215.002c-58 58 -151.333 87 -280 87c-122 0 -222 -51.167 -300 -153.5s-117 -231.833 -117 -388.5s36.167 -281 108.5 -373s168.833 -138 289.5 -138c138 0 246 49.333 324 148l121 -210c-106 -112.667 -261.333 -169 -466 -169
s-363.667 67.333 -477 202s-170 318.334 -170 551.001c0 216.667 62.833 397.834 188.5 543.501s286.5 218.5 482.5 218.5c168 0 302.333 -34.333 403 -103zM740 1887c41.333 0 76.833 -14.833 106.5 -44.5s44.5 -65.167 44.5 -106.5s-14.833 -76.833 -44.5 -106.5
s-65.167 -44.5 -106.5 -44.5c-42 0 -77.833 14.833 -107.5 44.5s-44.5 65.167 -44.5 106.5s14.833 76.833 44.5 106.5s65.5 44.5 107.5 44.5z" />
    <glyph glyph-name="cdot" unicode="&#x10b;" horiz-adv-x="1048" 
d="M975 986l-107.001 -186.999c-58.667 55.333 -137.334 83 -236.001 83c-94.667 0 -169.5 -31.5 -224.5 -94.5s-82.5 -150.167 -82.5 -261.5c0 -224.667 107 -337 321 -337c92.667 0 174.334 30.667 245.001 92l92 -197c-72.667 -45.333 -136.167 -74 -190.5 -86
s-118.5 -18 -192.5 -18c-165.333 0 -295.833 48.167 -391.5 144.5s-143.5 230.166 -143.5 401.499c0 168.667 52.333 305 157 409s247.334 156 428.001 156c124.667 0 233 -35 325 -105zM599.999 1517c41.333 0 76.833 -14.833 106.5 -44.5s44.5 -65.167 44.5 -106.5
s-14.833 -76.833 -44.5 -106.5s-65.167 -44.5 -106.5 -44.5c-42 0 -77.833 14.833 -107.5 44.5s-44.5 65.167 -44.5 106.5s14.833 76.833 44.5 106.5s65.5 44.5 107.5 44.5z" />
    <glyph glyph-name="Ccaron" unicode="&#x10c;" horiz-adv-x="1253" 
d="M1154 1387l-107 -215.002c-58 58 -151.333 87 -280 87c-122 0 -222 -51.167 -300 -153.5s-117 -231.833 -117 -388.5s36.167 -281 108.5 -373s168.833 -138 289.5 -138c138 0 246 49.333 324 148l121 -210c-106 -112.667 -261.333 -169 -466 -169
s-363.667 67.333 -477 202s-170 318.334 -170 551.001c0 216.667 62.833 397.834 188.5 543.501s286.5 218.5 482.5 218.5c168 0 302.333 -34.333 403 -103zM1151 1900l-368 -315h-107l-355 315h267l139 -149l157 149h267z" />
    <glyph glyph-name="ccaron" unicode="&#x10d;" horiz-adv-x="1048" 
d="M975 986l-107.001 -186.999c-58.667 55.333 -137.334 83 -236.001 83c-94.667 0 -169.5 -31.5 -224.5 -94.5s-82.5 -150.167 -82.5 -261.5c0 -224.667 107 -337 321 -337c92.667 0 174.334 30.667 245.001 92l92 -197c-72.667 -45.333 -136.167 -74 -190.5 -86
s-118.5 -18 -192.5 -18c-165.333 0 -295.833 48.167 -391.5 144.5s-143.5 230.166 -143.5 401.499c0 168.667 52.333 305 157 409s247.334 156 428.001 156c124.667 0 233 -35 325 -105zM990.999 1530l-368 -315h-107l-355 315h267l139 -149l157 149h267z" />
    <glyph glyph-name="Dcaron" unicode="&#x10e;" horiz-adv-x="1316" 
d="M475 0h-324.999v1464c207.333 7.33301 337.666 11 390.999 11c213.333 0 382.5 -62.5 507.5 -187.5s187.5 -290.833 187.5 -497.5c0 -526.667 -253.667 -790 -761 -790zM410.001 1237l0.000976562 -999.999c42 -4 87.333 -6 136 -6c131.333 0 234.166 47.667 308.499 143
s111.5 228.666 111.5 399.999c0 313.333 -145.667 470 -437 470c-28 0 -67.667 -2.33301 -119 -7zM1021 1900l-368 -315h-107l-355 315h267l139 -149l157 149h267z" />
    <glyph glyph-name="dcaron" unicode="&#x10f;" horiz-adv-x="1502" 
d="M804 0v65.001c-20.667 -22.667 -55.667 -42.5 -105 -59.5s-100.333 -25.5 -153 -25.5c-149.333 0 -266.833 47.333 -352.5 142s-128.5 226.667 -128.5 396s49.167 307.166 147.5 413.499s221.5 159.5 369.5 159.5c81.333 0 155.333 -16.667 222 -50v429l250 60v-1530
h-250zM804 815.001c-53.333 42.667 -109 64 -167 64c-100 0 -177 -30.5 -231 -91.5s-81 -148.5 -81 -262.5c0 -222.667 107.333 -334 322 -334c24 0 53.5 7.16699 88.5 21.5s57.833 28.833 68.5 43.5v559zM1212 1048l-63 85.001c44 33.333 71 57.833 81 73.5
s15 32.167 15 49.5s-11.5 37.5 -34.5 60.5s-34.5 48.167 -34.5 75.5c0 78.667 39 118 117 118c82 0 123 -46.333 123 -139c0 -130.667 -68 -238.334 -204 -323.001z" />
    <glyph glyph-name="Dslash" unicode="&#x110;" horiz-adv-x="1316" 
d="M150 694h-123.999v204h124v566c207.333 7.33301 337.666 11 390.999 11c213.333 0 382.5 -62.5 507.5 -187.5s187.5 -290.833 187.5 -497.5c0 -526.667 -253.667 -790 -761 -790h-325v694zM547.001 898l0.000976562 -203.999h-137v-457c42 -4 87.333 -6 136 -6
c131.333 0 234.166 47.667 308.499 143s111.5 228.666 111.5 399.999c0 313.333 -145.667 470 -437 470c-28 0 -67.667 -2.33301 -119 -7v-339h137z" />
    <glyph glyph-name="dcroat" unicode="&#x111;" horiz-adv-x="1189" 
d="M1153 1362v-140.999h-79v-1221h-250v65c-20.667 -22.667 -55.667 -42.5 -105 -59.5s-100.333 -25.5 -153 -25.5c-149.333 0 -266.833 47.333 -352.5 142s-128.5 226.667 -128.5 396s49.167 307.166 147.5 413.499s221.5 159.5 369.5 159.5
c81.333 0 155.333 -16.667 222 -50v180h-292v141h292v108l250 60v-168h79zM824 815.001c-53.333 42.667 -109 64 -167 64c-100 0 -177 -30.5 -231 -91.5s-81 -148.5 -81 -262.5c0 -222.667 107.333 -334 322 -334c24 0 53.5 7.16699 88.5 21.5s57.833 28.833 68.5 43.5v559z
" />
    <glyph glyph-name="Emacron" unicode="&#x112;" horiz-adv-x="1165" 
d="M410 1234v-343h484v-221h-484v-439h664v-231h-924v1465h935v-231h-675zM1011 1766v-181h-738v181h738z" />
    <glyph glyph-name="emacron" unicode="&#x113;" horiz-adv-x="1177" 
d="M1091 459l-765 -0.00195312c4.66699 -85.333 34 -151.666 88 -198.999s126.667 -71 218 -71c114 0 200.667 29.667 260 89l97 -191c-88 -71.333 -219.333 -107 -394 -107c-163.333 0 -292.5 47.833 -387.5 143.5s-142.5 229.167 -142.5 400.5
c0 168.667 52.167 305.334 156.5 410.001s229.5 157 375.5 157c155.333 0 280 -46.333 374 -139s141 -210.667 141 -354c0 -30.667 -7 -77 -21 -139zM335 646.998h526.001c-17.333 156.667 -104 235 -260 235c-142.667 0 -231.334 -78.333 -266.001 -235zM971.001 1396v-181
h-738v181h738z" />
    <glyph glyph-name="Ebreve" unicode="&#x114;" horiz-adv-x="1165" 
d="M410 1234v-343h484v-221h-484v-439h664v-231h-924v1465h935v-231h-675zM978 1910c0 -92.667 -32 -169.999 -96 -231.999s-146.667 -93 -248 -93c-97.333 0 -174.833 29.667 -232.5 89s-86.5 138 -86.5 236h141c0 -42.667 17.5 -76.834 52.5 -102.501
s76.833 -38.5 125.5 -38.5c60 0 108.5 12.5 145.5 37.5s55.5 59.5 55.5 103.5h143z" />
    <glyph glyph-name="ebreve" unicode="&#x115;" horiz-adv-x="1177" 
d="M1091 459l-765 -0.00195312c4.66699 -85.333 34 -151.666 88 -198.999s126.667 -71 218 -71c114 0 200.667 29.667 260 89l97 -191c-88 -71.333 -219.333 -107 -394 -107c-163.333 0 -292.5 47.833 -387.5 143.5s-142.5 229.167 -142.5 400.5
c0 168.667 52.167 305.334 156.5 410.001s229.5 157 375.5 157c155.333 0 280 -46.333 374 -139s141 -210.667 141 -354c0 -30.667 -7 -77 -21 -139zM335 646.998h526.001c-17.333 156.667 -104 235 -260 235c-142.667 0 -231.334 -78.333 -266.001 -235zM928.001 1540
c0 -92.667 -32 -169.999 -96 -231.999s-146.667 -93 -248 -93c-97.333 0 -174.833 29.667 -232.5 89s-86.5 138 -86.5 236h141c0 -42.667 17.5 -76.834 52.5 -102.501s76.833 -38.5 125.5 -38.5c60 0 108.5 12.5 145.5 37.5s55.5 59.5 55.5 103.5h143z" />
    <glyph glyph-name="Edot" unicode="&#x116;" horiz-adv-x="1165" 
d="M410 1234v-343h484v-221h-484v-439h664v-231h-924v1465h935v-231h-675zM630 1887c41.333 0 76.833 -14.833 106.5 -44.5s44.5 -65.167 44.5 -106.5s-14.833 -76.833 -44.5 -106.5s-65.167 -44.5 -106.5 -44.5c-42 0 -77.833 14.833 -107.5 44.5s-44.5 65.167 -44.5 106.5
s14.833 76.833 44.5 106.5s65.5 44.5 107.5 44.5z" />
    <glyph glyph-name="edot" unicode="&#x117;" horiz-adv-x="1177" 
d="M1091 459l-765 -0.00195312c4.66699 -85.333 34 -151.666 88 -198.999s126.667 -71 218 -71c114 0 200.667 29.667 260 89l97 -191c-88 -71.333 -219.333 -107 -394 -107c-163.333 0 -292.5 47.833 -387.5 143.5s-142.5 229.167 -142.5 400.5
c0 168.667 52.167 305.334 156.5 410.001s229.5 157 375.5 157c155.333 0 280 -46.333 374 -139s141 -210.667 141 -354c0 -30.667 -7 -77 -21 -139zM335 646.998h526.001c-17.333 156.667 -104 235 -260 235c-142.667 0 -231.334 -78.333 -266.001 -235zM580.001 1517
c41.333 0 76.833 -14.833 106.5 -44.5s44.5 -65.167 44.5 -106.5s-14.833 -76.833 -44.5 -106.5s-65.167 -44.5 -106.5 -44.5c-42 0 -77.833 14.833 -107.5 44.5s-44.5 65.167 -44.5 106.5s14.833 76.833 44.5 106.5s65.5 44.5 107.5 44.5z" />
    <glyph glyph-name="Eogonek" unicode="&#x118;" horiz-adv-x="1165" 
d="M731 0h-581.001v1465h935v-231h-675v-343h484v-221h-484v-439h664v-231h-100c-14 0 -34.5 -14 -61.5 -42s-40.5 -63.333 -40.5 -106c0 -29.333 12.667 -53.833 38 -73.5s54.333 -29.5 87 -29.5c34.667 0 66 13 94 39l65 -124c-52 -38.667 -119.333 -58 -202 -58
c-81.333 0 -145.666 19.833 -192.999 59.5s-71 91.167 -71 154.5c0 71.333 13.667 131.333 41 180z" />
    <glyph glyph-name="eogonek" unicode="&#x119;" horiz-adv-x="1177" 
d="M503 -14c-138.667 18 -246.332 73.8311 -322.999 167.498s-115 217.167 -115 370.5c0 168.667 52.167 305.334 156.5 410.001s229.5 157 375.5 157c155.333 0 280 -46.333 374 -139s141 -210.667 141 -354c0 -30.667 -7 -77 -21 -139h-765
c4.66699 -85.333 34 -151.666 88 -198.999s126.667 -71 218 -71c114 0 200.667 29.667 260 89l97 -191c-62.667 -50.667 -149.667 -83.667 -261 -99c-50.667 -30 -76 -75.333 -76 -136c0 -29.333 12.667 -53.833 38 -73.5s54.333 -29.5 87 -29.5c34.667 0 66 13 94 39
l65 -124c-52 -38.667 -119.333 -58 -202 -58s-147.334 20.167 -194.001 60.5s-70 94.833 -70 163.5c0 58 11 110 33 156zM335.002 646.998h526.001c-17.333 156.667 -104 235 -260 235c-142.667 0 -231.334 -78.333 -266.001 -235z" />
    <glyph glyph-name="Ecaron" unicode="&#x11a;" horiz-adv-x="1165" 
d="M410 1234v-343h484v-221h-484v-439h664v-231h-924v1465h935v-231h-675zM1041 1900l-368 -315h-107l-355 315h267l139 -149l157 149h267z" />
    <glyph glyph-name="ecaron" unicode="&#x11b;" horiz-adv-x="1177" 
d="M1091 459l-765 -0.00195312c4.66699 -85.333 34 -151.666 88 -198.999s126.667 -71 218 -71c114 0 200.667 29.667 260 89l97 -191c-88 -71.333 -219.333 -107 -394 -107c-163.333 0 -292.5 47.833 -387.5 143.5s-142.5 229.167 -142.5 400.5
c0 168.667 52.167 305.334 156.5 410.001s229.5 157 375.5 157c155.333 0 280 -46.333 374 -139s141 -210.667 141 -354c0 -30.667 -7 -77 -21 -139zM335 646.998h526.001c-17.333 156.667 -104 235 -260 235c-142.667 0 -231.334 -78.333 -266.001 -235zM1021 1530
l-368 -315h-107l-355 315h267l139 -149l157 149h267z" />
    <glyph glyph-name="Gcircumflex" unicode="&#x11c;" horiz-adv-x="1375" 
d="M1232 1346l-109.001 -209c-30.667 27.333 -78 54.5 -142 81.5s-119 40.5 -165 40.5c-144 0 -257.667 -48.833 -341 -146.5s-125 -228.5 -125 -392.5c0 -156 40.833 -280.667 122.5 -374s192.834 -140 333.501 -140c92.667 0 169 25.333 229 76v288h-203v222h463v-656
c-62 -50.667 -141.833 -90.167 -239.5 -118.5s-194.834 -42.5 -291.501 -42.5c-210 0 -376.5 68.833 -499.5 206.5s-184.5 319.5 -184.5 545.5s67 409.667 201 551s314.333 212 541 212c160.667 0 297.334 -48 410.001 -144zM900.999 1585l-157 149l-139 -149h-267l355 315
h107l368 -315h-267z" />
    <glyph glyph-name="gcircumflex" unicode="&#x11d;" horiz-adv-x="1028" 
d="M55 -275l157.997 195.001c87.333 -80 184.666 -120 291.999 -120c72 0 131.333 10.667 178 32s70 50.666 70 87.999c0 63.333 -51.667 95 -155 95c-28 0 -69.667 -3.33301 -125 -10s-97 -10 -125 -10c-172 0 -258 61.667 -258 185c0 35.333 14.333 70 43 104
s62 59 100 75c-122 79.333 -183 191.666 -183 336.999c0 114.667 42 209.5 126 284.5s187.333 112.5 310 112.5c96 0 176.333 -18 241 -54l98 114l173 -157l-119 -87c41.333 -62.667 62 -136.667 62 -222c0 -122 -37.167 -219.5 -111.5 -292.5
s-168.166 -109.5 -281.499 -109.5c-18 0 -42 1.66699 -72 5l-41 6c-4.66699 0 -22.5 -7.16699 -53.5 -21.5s-46.5 -29.166 -46.5 -44.499c0 -26.667 23 -40 69 -40c20.667 0 55.334 5 104.001 15s90.334 15 125.001 15c243.333 0 365 -97.667 365 -293
c0 -108 -48.667 -192.833 -146 -254.5s-214.666 -92.5 -351.999 -92.5c-164 0 -312.333 48.333 -445 145zM304.997 695.001c0 -63.333 17.5 -114.166 52.5 -152.499s82.167 -57.5 141.5 -57.5s105 18.667 137 56s48 88.666 48 153.999c0 54 -17.167 99.667 -51.5 137
s-78.833 56 -133.5 56c-57.333 0 -104 -18 -140 -54s-54 -82.333 -54 -139zM603.997 1215l-157 149l-139 -149h-267l355 315h107l368 -315h-267z" />
    <glyph glyph-name="Gbreve" unicode="&#x11e;" horiz-adv-x="1375" 
d="M1232 1346l-109.001 -209c-30.667 27.333 -78 54.5 -142 81.5s-119 40.5 -165 40.5c-144 0 -257.667 -48.833 -341 -146.5s-125 -228.5 -125 -392.5c0 -156 40.833 -280.667 122.5 -374s192.834 -140 333.501 -140c92.667 0 169 25.333 229 76v288h-203v222h463v-656
c-62 -50.667 -141.833 -90.167 -239.5 -118.5s-194.834 -42.5 -291.501 -42.5c-210 0 -376.5 68.833 -499.5 206.5s-184.5 319.5 -184.5 545.5s67 409.667 201 551s314.333 212 541 212c160.667 0 297.334 -48 410.001 -144zM1088 1910c0 -92.667 -32 -169.999 -96 -231.999
s-146.667 -93 -248 -93c-97.333 0 -174.833 29.667 -232.5 89s-86.5 138 -86.5 236h141c0 -42.667 17.5 -76.834 52.5 -102.501s76.833 -38.5 125.5 -38.5c60 0 108.5 12.5 145.5 37.5s55.5 59.5 55.5 103.5h143z" />
    <glyph glyph-name="gbreve" unicode="&#x11f;" horiz-adv-x="1028" 
d="M55 -275l157.997 195.001c87.333 -80 184.666 -120 291.999 -120c72 0 131.333 10.667 178 32s70 50.666 70 87.999c0 63.333 -51.667 95 -155 95c-28 0 -69.667 -3.33301 -125 -10s-97 -10 -125 -10c-172 0 -258 61.667 -258 185c0 35.333 14.333 70 43 104
s62 59 100 75c-122 79.333 -183 191.666 -183 336.999c0 114.667 42 209.5 126 284.5s187.333 112.5 310 112.5c96 0 176.333 -18 241 -54l98 114l173 -157l-119 -87c41.333 -62.667 62 -136.667 62 -222c0 -122 -37.167 -219.5 -111.5 -292.5
s-168.166 -109.5 -281.499 -109.5c-18 0 -42 1.66699 -72 5l-41 6c-4.66699 0 -22.5 -7.16699 -53.5 -21.5s-46.5 -29.166 -46.5 -44.499c0 -26.667 23 -40 69 -40c20.667 0 55.334 5 104.001 15s90.334 15 125.001 15c243.333 0 365 -97.667 365 -293
c0 -108 -48.667 -192.833 -146 -254.5s-214.666 -92.5 -351.999 -92.5c-164 0 -312.333 48.333 -445 145zM304.997 695.001c0 -63.333 17.5 -114.166 52.5 -152.499s82.167 -57.5 141.5 -57.5s105 18.667 137 56s48 88.666 48 153.999c0 54 -17.167 99.667 -51.5 137
s-78.833 56 -133.5 56c-57.333 0 -104 -18 -140 -54s-54 -82.333 -54 -139zM807.997 1540c0 -92.667 -32 -169.999 -96 -231.999s-146.667 -93 -248 -93c-97.333 0 -174.833 29.667 -232.5 89s-86.5 138 -86.5 236h141c0 -42.667 17.5 -76.834 52.5 -102.501
s76.833 -38.5 125.5 -38.5c60 0 108.5 12.5 145.5 37.5s55.5 59.5 55.5 103.5h143z" />
    <glyph glyph-name="Gdot" unicode="&#x120;" horiz-adv-x="1375" 
d="M1232 1346l-109.001 -209c-30.667 27.333 -78 54.5 -142 81.5s-119 40.5 -165 40.5c-144 0 -257.667 -48.833 -341 -146.5s-125 -228.5 -125 -392.5c0 -156 40.833 -280.667 122.5 -374s192.834 -140 333.501 -140c92.667 0 169 25.333 229 76v288h-203v222h463v-656
c-62 -50.667 -141.833 -90.167 -239.5 -118.5s-194.834 -42.5 -291.501 -42.5c-210 0 -376.5 68.833 -499.5 206.5s-184.5 319.5 -184.5 545.5s67 409.667 201 551s314.333 212 541 212c160.667 0 297.334 -48 410.001 -144zM739.999 1887
c41.333 0 76.833 -14.833 106.5 -44.5s44.5 -65.167 44.5 -106.5s-14.833 -76.833 -44.5 -106.5s-65.167 -44.5 -106.5 -44.5c-42 0 -77.833 14.833 -107.5 44.5s-44.5 65.167 -44.5 106.5s14.833 76.833 44.5 106.5s65.5 44.5 107.5 44.5z" />
    <glyph glyph-name="gdot" unicode="&#x121;" horiz-adv-x="1028" 
d="M55 -275l157.997 195.001c87.333 -80 184.666 -120 291.999 -120c72 0 131.333 10.667 178 32s70 50.666 70 87.999c0 63.333 -51.667 95 -155 95c-28 0 -69.667 -3.33301 -125 -10s-97 -10 -125 -10c-172 0 -258 61.667 -258 185c0 35.333 14.333 70 43 104
s62 59 100 75c-122 79.333 -183 191.666 -183 336.999c0 114.667 42 209.5 126 284.5s187.333 112.5 310 112.5c96 0 176.333 -18 241 -54l98 114l173 -157l-119 -87c41.333 -62.667 62 -136.667 62 -222c0 -122 -37.167 -219.5 -111.5 -292.5
s-168.166 -109.5 -281.499 -109.5c-18 0 -42 1.66699 -72 5l-41 6c-4.66699 0 -22.5 -7.16699 -53.5 -21.5s-46.5 -29.166 -46.5 -44.499c0 -26.667 23 -40 69 -40c20.667 0 55.334 5 104.001 15s90.334 15 125.001 15c243.333 0 365 -97.667 365 -293
c0 -108 -48.667 -192.833 -146 -254.5s-214.666 -92.5 -351.999 -92.5c-164 0 -312.333 48.333 -445 145zM304.997 695.001c0 -63.333 17.5 -114.166 52.5 -152.499s82.167 -57.5 141.5 -57.5s105 18.667 137 56s48 88.666 48 153.999c0 54 -17.167 99.667 -51.5 137
s-78.833 56 -133.5 56c-57.333 0 -104 -18 -140 -54s-54 -82.333 -54 -139zM459.997 1517c41.333 0 76.833 -14.833 106.5 -44.5s44.5 -65.167 44.5 -106.5s-14.833 -76.833 -44.5 -106.5s-65.167 -44.5 -106.5 -44.5c-42 0 -77.833 14.833 -107.5 44.5
s-44.5 65.167 -44.5 106.5s14.833 76.833 44.5 106.5s65.5 44.5 107.5 44.5z" />
    <glyph glyph-name="Gcedilla" unicode="&#x122;" horiz-adv-x="1375" 
d="M1232 1346l-109.001 -209c-30.667 27.333 -78 54.5 -142 81.5s-119 40.5 -165 40.5c-144 0 -257.667 -48.833 -341 -146.5s-125 -228.5 -125 -392.5c0 -156 40.833 -280.667 122.5 -374s192.834 -140 333.501 -140c92.667 0 169 25.333 229 76v288h-203v222h463v-656
c-62 -50.667 -141.833 -90.167 -239.5 -118.5s-194.834 -42.5 -291.501 -42.5c-210 0 -376.5 68.833 -499.5 206.5s-184.5 319.5 -184.5 545.5s67 409.667 201 551s314.333 212 541 212c160.667 0 297.334 -48 410.001 -144zM551.999 -425l-41 127c22.667 -6 46 -9 70 -9
c87.333 0 131 30.333 131 91c0 22 -6.83301 43.333 -20.5 64s-30.834 33.667 -51.501 39l85 89c120 -24.667 180 -93.667 180 -207c0 -64 -23.667 -114.167 -71 -150.5s-108.666 -54.5 -183.999 -54.5c-34 0 -66.667 3.66699 -98 11z" />
    <glyph glyph-name="gcedilla" unicode="&#x123;" horiz-adv-x="1028" 
d="M55 -275l157.997 195.001c87.333 -80 184.666 -120 291.999 -120c72 0 131.333 10.667 178 32s70 50.666 70 87.999c0 63.333 -51.667 95 -155 95c-28 0 -69.667 -3.33301 -125 -10s-97 -10 -125 -10c-172 0 -258 61.667 -258 185c0 35.333 14.333 70 43 104
s62 59 100 75c-122 79.333 -183 191.666 -183 336.999c0 114.667 42 209.5 126 284.5s187.333 112.5 310 112.5c96 0 176.333 -18 241 -54l98 114l173 -157l-119 -87c41.333 -62.667 62 -136.667 62 -222c0 -122 -37.167 -219.5 -111.5 -292.5
s-168.166 -109.5 -281.499 -109.5c-18 0 -42 1.66699 -72 5l-41 6c-4.66699 0 -22.5 -7.16699 -53.5 -21.5s-46.5 -29.166 -46.5 -44.499c0 -26.667 23 -40 69 -40c20.667 0 55.334 5 104.001 15s90.334 15 125.001 15c243.333 0 365 -97.667 365 -293
c0 -108 -48.667 -192.833 -146 -254.5s-214.666 -92.5 -351.999 -92.5c-164 0 -312.333 48.333 -445 145zM304.997 695.001c0 -63.333 17.5 -114.166 52.5 -152.499s82.167 -57.5 141.5 -57.5s105 18.667 137 56s48 88.666 48 153.999c0 54 -17.167 99.667 -51.5 137
s-78.833 56 -133.5 56c-57.333 0 -104 -18 -140 -54s-54 -82.333 -54 -139zM544.997 1718l82 -97c-45.333 -45.333 -71.5 -74.833 -78.5 -88.5s-10.5 -24.834 -10.5 -33.501c0 -18 14 -40.167 42 -66.5s42 -56.166 42 -89.499c0 -38.667 -13 -69.667 -39 -93
s-58.333 -35 -97 -35c-85.333 0 -128 58.333 -128 175c0 122 62.333 231.333 187 328z" />
    <glyph glyph-name="Hcircumflex" unicode="&#x124;" horiz-adv-x="1400" 
d="M993 0v660h-583v-660h-260v1465h260v-574h583v574h257v-1465h-257zM857 1585l-157 149l-139 -149h-267l355 315h107l368 -315h-267z" />
    <glyph glyph-name="hcircumflex" unicode="&#x125;" horiz-adv-x="1214" 
d="M828 0v660c0 66 -20.667 119 -62 159s-95.333 60 -162 60c-41.333 0 -83 -11.167 -125 -33.5s-72 -47.833 -90 -76.5v-769h-254v1470l254 60v-527c64.667 58.667 153.667 88 267 88c134 0 238 -37.167 312 -111.5s111 -180.833 111 -319.5v-660h-251zM774 1585l-157 149
l-139 -149h-267l355 315h107l368 -315h-267z" />
    <glyph glyph-name="Hbar" unicode="&#x126;" horiz-adv-x="1436" 
d="M1411 1103h-139v-1103h-256v659h-592v-659h-260v1103h-139v155h139v207h260v-207h592v207h256v-207h139v-155zM1016 891v212h-592v-212h592z" />
    <glyph glyph-name="hbar" unicode="&#x127;" horiz-adv-x="1227" 
d="M1090 0h-249.998v612c0 66 -21 119 -63 159s-96.333 60 -163 60c-43.333 0 -85 -10.667 -125 -32c-42.667 -22.667 -73.334 -48.667 -92.001 -78v-721h-250v1184h-151v159h151v130l250 59v-189h391v-159h-391v-236c67.333 58.667 157.666 88 270.999 88
c134 0 237.833 -37.5 311.5 -112.5s110.5 -181.5 110.5 -319.5v-604z" />
    <glyph glyph-name="Itilde" unicode="&#x128;" horiz-adv-x="570" 
d="M155 0v1465h260v-1465h-260zM75 1555h-144.999c12.667 76 38.167 137.833 76.5 185.5s85.833 71.5 142.5 71.5c52 0 104 -12.833 156 -38.5s85.333 -38.5 100 -38.5c40.667 0 69.667 25.667 87 77h148c-25.333 -99.333 -56.333 -167 -93 -203s-82.667 -54 -138 -54
c-41.333 0 -88.5 12.833 -141.5 38.5s-87.5 38.5 -103.5 38.5c-34.667 0 -64.334 -25.667 -89.001 -77z" />
    <glyph glyph-name="itilde" unicode="&#x129;" horiz-adv-x="611" 
d="M202 0v866h-137v205h390v-1071h-253zM98 1185h-144.999c12.667 76 38.167 137.833 76.5 185.5s85.833 71.5 142.5 71.5c52 0 104 -12.833 156 -38.5s85.333 -38.5 100 -38.5c40.667 0 69.667 25.667 87 77h148c-25.333 -99.333 -56.333 -167 -93 -203
s-82.667 -54 -138 -54c-41.333 0 -88.5 12.833 -141.5 38.5s-87.5 38.5 -103.5 38.5c-34.667 0 -64.334 -25.667 -89.001 -77z" />
    <glyph glyph-name="Imacron" unicode="&#x12a;" horiz-adv-x="570" 
d="M155 0v1465h260v-1465h-260zM654 1766v-181h-738v181h738z" />
    <glyph glyph-name="imacron" unicode="&#x12b;" horiz-adv-x="611" 
d="M202 0v866h-137v205h390v-1071h-253zM681 1396v-181h-738v181h738z" />
    <glyph glyph-name="Ibreve" unicode="&#x12c;" horiz-adv-x="570" 
d="M155 0v1465h260v-1465h-260zM616 1910c0 -92.667 -32 -169.999 -96 -231.999s-146.667 -93 -248 -93c-97.333 0 -174.833 29.667 -232.5 89s-86.5 138 -86.5 236h141c0 -42.667 17.5 -76.834 52.5 -102.501s76.833 -38.5 125.5 -38.5c60 0 108.5 12.5 145.5 37.5
s55.5 59.5 55.5 103.5h143z" />
    <glyph glyph-name="ibreve" unicode="&#x12d;" horiz-adv-x="611" 
d="M202 0v866h-137v205h390v-1071h-253zM638 1540c0 -92.667 -32 -169.999 -96 -231.999s-146.667 -93 -248 -93c-97.333 0 -174.833 29.667 -232.5 89s-86.5 138 -86.5 236h141c0 -42.667 17.5 -76.834 52.5 -102.501s76.833 -38.5 125.5 -38.5c60 0 108.5 12.5 145.5 37.5
s55.5 59.5 55.5 103.5h143z" />
    <glyph glyph-name="Iogonek" unicode="&#x12e;" horiz-adv-x="570" 
d="M585 -336c-52 -38.667 -119.333 -58 -202 -58c-73.333 0 -134 17 -182 51c-54.667 38.667 -82 93 -82 163c0 68.667 14.667 128.667 44 180h-8v1465h260v-1465h-12c-30 -9.33301 -54.5 -28.333 -73.5 -57s-28.5 -59 -28.5 -91c0 -30.667 13.667 -56 41 -76
c24.667 -18 52.667 -27 84 -27c34.667 0 66 13 94 39z" />
    <glyph glyph-name="iogonek" unicode="&#x12f;" horiz-adv-x="611" 
d="M474 1341c0 -40.667 -14 -75 -42 -103s-61.667 -42 -101 -42c-41.333 0 -76 14.667 -104 44s-42 63 -42 101c0 40 14.333 74.333 43 103s63 43 103 43c39.333 0 73 -14 101 -42s42 -62.667 42 -104zM632 -336c-52 -38.667 -119.333 -58 -202 -58
c-73.333 0 -134 17 -182 51c-54.667 38.667 -82 93 -82 163c0 68.667 14.667 128.667 44 180h-8v866h-137v205h389v-1071h-4c-30 -9.33301 -54.5 -28.333 -73.5 -57s-28.5 -59 -28.5 -91c0 -30.667 13.667 -56 41 -76c24.667 -18 52.667 -27 84 -27c34.667 0 66 13 94 39z
" />
    <glyph glyph-name="Idotaccent" unicode="&#x130;" horiz-adv-x="570" 
d="M155 0v1465h260v-1465h-260zM288 1887c41.333 0 76.833 -14.833 106.5 -44.5s44.5 -65.167 44.5 -106.5s-14.833 -76.833 -44.5 -106.5s-65.167 -44.5 -106.5 -44.5c-42 0 -77.833 14.833 -107.5 44.5s-44.5 65.167 -44.5 106.5s14.833 76.833 44.5 106.5
s65.5 44.5 107.5 44.5z" />
    <glyph glyph-name="dotlessi" unicode="&#x131;" horiz-adv-x="611" 
d="M202 0v866h-137v205h390v-1071h-253z" />
    <glyph glyph-name="IJ" unicode="&#x132;" horiz-adv-x="1621" 
d="M155 0v1465h260v-1465h-260zM547 339h232.001c22 -85.333 93.333 -128 214 -128c85.333 0 145.5 27.667 180.5 83s52.5 139.333 52.5 252v919h260v-911c0 -194.667 -41.333 -339 -124 -433s-215.334 -141 -398.001 -141c-121.333 0 -219.333 31.667 -294 95
s-115.667 151.333 -123 264z" />
    <glyph glyph-name="ij" unicode="&#x133;" horiz-adv-x="1274" 
d="M331 1486c40 0 74.167 -14.167 102.5 -42.5s42.5 -62.5 42.5 -102.5s-14.167 -74.167 -42.5 -102.5s-62.5 -42.5 -102.5 -42.5s-74.167 14.167 -102.5 42.5s-42.5 62.5 -42.5 102.5s14.167 74.167 42.5 102.5s62.5 42.5 102.5 42.5zM202 0v866h-137v205h390v-1071h-253z
M969 1486c40 0 74.167 -14.167 102.5 -42.5s42.5 -62.5 42.5 -102.5s-14.167 -74.167 -42.5 -102.5s-62.5 -42.5 -102.5 -42.5s-74.167 14.167 -102.5 42.5s-42.5 62.5 -42.5 102.5s14.167 74.167 42.5 102.5s62.5 42.5 102.5 42.5zM511 -420l-0.000976562 223
c133.333 0 223.5 15.833 270.5 47.5s70.5 88.5 70.5 170.5v844h-193v206h443v-1046c0 -153.333 -48.167 -265.833 -144.5 -337.5s-245.166 -107.5 -446.499 -107.5z" />
    <glyph glyph-name="Jcircumflex" unicode="&#x134;" horiz-adv-x="1091" 
d="M17 339h232.001c22 -85.333 93.333 -128 214 -128c85.333 0 145.5 27.667 180.5 83s52.5 139.333 52.5 252v919h260v-911c0 -194.667 -41.333 -339 -124 -433s-215.334 -141 -398.001 -141c-121.333 0 -219.333 31.667 -294 95s-115.667 151.333 -123 264zM853.001 1585
l-157 149l-139 -149h-267l355 315h107l368 -315h-267z" />
    <glyph glyph-name="jcircumflex" unicode="&#x135;" horiz-adv-x="751" 
d="M-12 -420l-0.000976562 223c133.333 0 223.5 15.833 270.5 47.5s70.5 88.5 70.5 170.5v844h-193v206h443v-1046c0 -153.333 -48.167 -265.833 -144.5 -337.5s-245.166 -107.5 -446.499 -107.5zM523.999 1215l-157 149l-139 -149h-267l355 315h107l368 -315h-267z" />
    <glyph glyph-name="Kcedilla" unicode="&#x136;" horiz-adv-x="1264" 
d="M981 0l-408 624l-163 -223v-401h-260v1465h260v-701l498 701h296l-459 -640l547 -825h-311zM451 -425l-41 127c22.667 -6 46 -9 70 -9c87.333 0 131 30.333 131 91c0 22 -6.83301 43.333 -20.5 64s-30.834 33.667 -51.501 39l85 89c120 -24.667 180 -93.667 180 -207
c0 -64 -23.667 -114.167 -71 -150.5s-108.666 -54.5 -183.999 -54.5c-34 0 -66.667 3.66699 -98 11z" />
    <glyph glyph-name="kcedilla" unicode="&#x137;" horiz-adv-x="1122" 
d="M820 0l-315 485l-120 -127v-358h-250v1470l250 60v-870l357 411h301l-362 -406l436 -665h-297zM391 -425l-41 127c22.667 -6 46 -9 70 -9c87.333 0 131 30.333 131 91c0 22 -6.83301 43.333 -20.5 64s-30.834 33.667 -51.501 39l85 89c120 -24.667 180 -93.667 180 -207
c0 -64 -23.667 -114.167 -71 -150.5s-108.666 -54.5 -183.999 -54.5c-34 0 -66.667 3.66699 -98 11z" />
    <glyph glyph-name="kgreenlandic" unicode="&#x138;" horiz-adv-x="1176" 
d="M844 0l-301 453l-150 -164v-289h-250v1071h250v-481l406 481h301l-398 -442l455 -629h-313z" />
    <glyph glyph-name="Lacute" unicode="&#x139;" horiz-adv-x="1132" 
d="M150 0v1465h260v-1234h662v-231h-922zM667 1878l-226 -293h-190l169 293h247z" />
    <glyph glyph-name="lacute" unicode="&#x13a;" horiz-adv-x="604" 
d="M178 1470l250 60v-1204c0 -132 39.333 -210.667 118 -236c-38.667 -73.333 -104.667 -110 -198 -110c-113.333 0 -170 78.667 -170 236v1254zM597 1878l-226 -293h-190l169 293h247z" />
    <glyph glyph-name="Lcedilla" unicode="&#x13b;" horiz-adv-x="1132" 
d="M150 0v1465h260v-1234h662v-231h-922zM451 -425l-41 127c22.667 -6 46 -9 70 -9c87.333 0 131 30.333 131 91c0 22 -6.83301 43.333 -20.5 64s-30.834 33.667 -51.501 39l85 89c120 -24.667 180 -93.667 180 -207c0 -64 -23.667 -114.167 -71 -150.5
s-108.666 -54.5 -183.999 -54.5c-34 0 -66.667 3.66699 -98 11z" />
    <glyph glyph-name="lcedilla" unicode="&#x13c;" horiz-adv-x="604" 
d="M178 1470l250 60v-1204c0 -132 39.333 -210.667 118 -236c-38.667 -73.333 -104.667 -110 -198 -110c-113.333 0 -170 78.667 -170 236v1254zM175 -425l-41 127c22.667 -6 46 -9 70 -9c87.333 0 131 30.333 131 91c0 22 -6.83301 43.333 -20.5 64
s-30.834 33.667 -51.501 39l85 89c120 -24.667 180 -93.667 180 -207c0 -64 -23.667 -114.167 -71 -150.5s-108.666 -54.5 -183.999 -54.5c-34 0 -66.667 3.66699 -98 11z" />
    <glyph glyph-name="Lcaron" unicode="&#x13d;" horiz-adv-x="1132" 
d="M150 0v1465h260v-1234h662v-231h-922zM742 1048l-63 85.001c44 33.333 71 57.833 81 73.5s15 32.167 15 49.5s-11.5 37.5 -34.5 60.5s-34.5 48.167 -34.5 75.5c0 78.667 39 118 117 118c82 0 123 -46.333 123 -139c0 -130.667 -68 -238.334 -204 -323.001z" />
    <glyph glyph-name="lcaron" unicode="&#x13e;" horiz-adv-x="773" 
d="M178 1470l250 60v-1204c0 -132 39.333 -210.667 118 -236c-38.667 -73.333 -104.667 -110 -198 -110c-113.333 0 -170 78.667 -170 236v1254zM602 1048l-63 85.001c44 33.333 71 57.833 81 73.5s15 32.167 15 49.5s-11.5 37.5 -34.5 60.5s-34.5 48.167 -34.5 75.5
c0 78.667 39 118 117 118c82 0 123 -46.333 123 -139c0 -130.667 -68 -238.334 -204 -323.001z" />
    <glyph glyph-name="Ldot" unicode="&#x13f;" horiz-adv-x="1132" 
d="M150 0v1465h260v-1234h662v-231h-922zM654 741c0 50 17.5 92.5 52.5 127.5s77.5 52.5 127.5 52.5s92.5 -17.5 127.5 -52.5s52.5 -77.5 52.5 -127.5s-17.5 -92.667 -52.5 -128s-77.5 -53 -127.5 -53s-92.5 17.667 -127.5 53s-52.5 78 -52.5 128z" />
    <glyph glyph-name="ldot" unicode="&#x140;" horiz-adv-x="894" 
d="M178 1470l250 60v-1204c0 -132 39.333 -210.667 118 -236c-38.667 -73.333 -104.667 -110 -198 -110c-113.333 0 -170 78.667 -170 236v1254zM564 741c0 50 17.5 92.5 52.5 127.5s77.5 52.5 127.5 52.5s92.5 -17.5 127.5 -52.5s52.5 -77.5 52.5 -127.5
s-17.5 -92.667 -52.5 -128s-77.5 -53 -127.5 -53s-92.5 17.667 -127.5 53s-52.5 78 -52.5 128z" />
    <glyph glyph-name="Lslash" unicode="&#x141;" horiz-adv-x="1132" 
d="M545 923l-135 -91v-601h662v-231h-922v657l-129 -87v174l129 84v637h260v-469l135 88v-161z" />
    <glyph glyph-name="lslash" unicode="&#x142;" horiz-adv-x="604" 
d="M567 912l-139 -93v-493c0 -132 39.333 -210.667 118 -236c-38.667 -73.333 -104.667 -110 -198 -110c-113.333 0 -170 78.667 -170 236v437l-135 -90v174l135 88v645l250 60v-543l139 90v-165z" />
    <glyph glyph-name="Nacute" unicode="&#x143;" horiz-adv-x="1367" 
d="M1111 -20l-711 927v-908h-250v1466h125l692 -884v884h250v-1485h-106zM947 1878l-226 -293h-190l169 293h247z" />
    <glyph glyph-name="nacute" unicode="&#x144;" horiz-adv-x="1209" 
d="M824 0l0.000976562 619.001c0 91.333 -17.5 158 -52.5 200s-92.167 63 -171.5 63c-36.667 0 -75.834 -10.333 -117.501 -31s-74.167 -46.334 -97.5 -77.001v-774h-250v1071h180l46 -100c68 80 168.333 120 301 120c127.333 0 227.833 -38.167 301.5 -114.5
s110.5 -182.833 110.5 -319.5v-657h-250zM897.001 1508l-226 -293h-190l169 293h247z" />
    <glyph glyph-name="Ncedilla" unicode="&#x145;" horiz-adv-x="1367" 
d="M1111 -20l-711 927v-908h-250v1466h125l692 -884v884h250v-1485h-106zM505 -425l-41 127c22.667 -6 46 -9 70 -9c87.333 0 131 30.333 131 91c0 22 -6.83301 43.333 -20.5 64s-30.834 33.667 -51.501 39l85 89c120 -24.667 180 -93.667 180 -207
c0 -64 -23.667 -114.167 -71 -150.5s-108.666 -54.5 -183.999 -54.5c-34 0 -66.667 3.66699 -98 11z" />
    <glyph glyph-name="ncedilla" unicode="&#x146;" horiz-adv-x="1209" 
d="M824 0l0.000976562 619.001c0 91.333 -17.5 158 -52.5 200s-92.167 63 -171.5 63c-36.667 0 -75.834 -10.333 -117.501 -31s-74.167 -46.334 -97.5 -77.001v-774h-250v1071h180l46 -100c68 80 168.333 120 301 120c127.333 0 227.833 -38.167 301.5 -114.5
s110.5 -182.833 110.5 -319.5v-657h-250zM425.001 -424.999l-41 127c22.667 -6 46 -9 70 -9c87.333 0 131 30.333 131 91c0 22 -6.83301 43.333 -20.5 64s-30.834 33.667 -51.501 39l85 89c120 -24.667 180 -93.667 180 -207c0 -64 -23.667 -114.167 -71 -150.5
s-108.666 -54.5 -183.999 -54.5c-34 0 -66.667 3.66699 -98 11z" />
    <glyph glyph-name="Ncaron" unicode="&#x147;" horiz-adv-x="1367" 
d="M1111 -20l-711 927v-908h-250v1466h125l692 -884v884h250v-1485h-106zM1101 1900l-368 -315h-107l-355 315h267l139 -149l157 149h267z" />
    <glyph glyph-name="ncaron" unicode="&#x148;" horiz-adv-x="1209" 
d="M824 0l0.000976562 619.001c0 91.333 -17.5 158 -52.5 200s-92.167 63 -171.5 63c-36.667 0 -75.834 -10.333 -117.501 -31s-74.167 -46.334 -97.5 -77.001v-774h-250v1071h180l46 -100c68 80 168.333 120 301 120c127.333 0 227.833 -38.167 301.5 -114.5
s110.5 -182.833 110.5 -319.5v-657h-250zM1021 1530l-368 -315h-107l-355 315h267l139 -149l157 149h267z" />
    <glyph glyph-name="napostrophe" unicode="&#x149;" horiz-adv-x="1399" 
d="M63 1048l-63 85.001c44 33.333 71 57.833 81 73.5s15 32.167 15 49.5s-11.5 37.5 -34.5 60.5s-34.5 48.167 -34.5 75.5c0 78.667 39 118 117 118c82 0 123 -46.333 123 -139c0 -130.667 -68 -238.334 -204 -323.001zM1014 0.000976562l0.000976562 619.001
c0 91.333 -17.5 158 -52.5 200s-92.167 63 -171.5 63c-36.667 0 -75.834 -10.333 -117.501 -31s-74.167 -46.334 -97.5 -77.001v-774h-250v1071h180l46 -100c68 80 168.333 120 301 120c127.333 0 227.833 -38.167 301.5 -114.5s110.5 -182.833 110.5 -319.5v-657h-250z" />
    <glyph glyph-name="Eng" unicode="&#x14a;" horiz-adv-x="1397" 
d="M1253 403c0 -136 -32.502 -242.333 -97.502 -319s-157.167 -115 -276.5 -115c-43.333 0 -87.666 9 -132.999 27s-79.666 39 -102.999 63l100 183c36 -31.333 75 -47 117 -47c88.667 0 133 60 133 180v532c0 124 -23.167 213.833 -69.5 269.5s-122.166 83.5 -227.499 83.5
c-50.667 0 -103.5 -14.167 -158.5 -42.5s-97.5 -62.833 -127.5 -103.5v-1114h-260v1465h174l51 -126c97.333 101.333 223.666 152 378.999 152c152 0 273.167 -46.833 363.5 -140.5s135.5 -223.5 135.5 -389.5v-558z" />
    <glyph glyph-name="eng" unicode="&#x14b;" horiz-adv-x="1209" 
d="M1075 74c0 -328.667 -157 -494.667 -471 -498v217c146 0 219 86.667 219 260v565c0 92.667 -17.333 160 -52 202s-91.667 63 -171 63c-37.333 0 -76.333 -10.333 -117 -31c-43.333 -22 -76 -48 -98 -78v-774h-250v1071h180l45 -100c68 80.667 168.667 121 302 121
c130.667 0 232.667 -40 306 -120c71.333 -78 107 -183 107 -315v-583z" />
    <glyph glyph-name="Omacron" unicode="&#x14c;" horiz-adv-x="1440" 
d="M80 745c0 208.667 57.168 385.167 171.501 529.5s267.166 216.5 458.499 216.5c210.667 0 371.667 -65.333 483 -196s167 -314 167 -550s-58.167 -423.333 -174.5 -562s-281.5 -208 -495.5 -208c-196.667 0 -347.5 68.667 -452.5 206s-157.5 325.333 -157.5 564z
M350.001 745c0 -171.333 29 -304 87 -398s142.333 -141 253 -141c130 0 229.167 46 297.5 138s102.5 225.667 102.5 401c0 343.333 -126.667 515 -380 515c-116 0 -205 -46.5 -267 -139.5s-93 -218.167 -93 -375.5zM1079 1766v-181h-738v181h738z" />
    <glyph glyph-name="omacron" unicode="&#x14d;" horiz-adv-x="1159" 
d="M65 538c0 163.333 47.167 296.333 141.5 399s218.833 154 373.5 154c162.667 0 289 -49.333 379 -148s135 -233.667 135 -405c0 -170.667 -45.833 -306.334 -137.5 -407.001s-217.167 -151 -376.5 -151c-162.667 0 -289.167 50.833 -379.5 152.5
s-135.5 236.834 -135.5 405.501zM325 538c0 -236 85 -353.999 255 -353.999c78 0 139.833 30.667 185.5 92s68.5 148.666 68.5 261.999c0 232.667 -84.667 349 -254 349c-78 0 -140 -30.667 -186 -92s-69 -147 -69 -257zM949 1396v-181h-738v181h738z" />
    <glyph glyph-name="Obreve" unicode="&#x14e;" horiz-adv-x="1440" 
d="M80 745c0 208.667 57.168 385.167 171.501 529.5s267.166 216.5 458.499 216.5c210.667 0 371.667 -65.333 483 -196s167 -314 167 -550s-58.167 -423.333 -174.5 -562s-281.5 -208 -495.5 -208c-196.667 0 -347.5 68.667 -452.5 206s-157.5 325.333 -157.5 564z
M350.001 745c0 -171.333 29 -304 87 -398s142.333 -141 253 -141c130 0 229.167 46 297.5 138s102.5 225.667 102.5 401c0 343.333 -126.667 515 -380 515c-116 0 -205 -46.5 -267 -139.5s-93 -218.167 -93 -375.5zM1054 1910c0 -92.667 -32 -169.999 -96 -231.999
s-146.667 -93 -248 -93c-97.333 0 -174.833 29.667 -232.5 89s-86.5 138 -86.5 236h141c0 -42.667 17.5 -76.834 52.5 -102.501s76.833 -38.5 125.5 -38.5c60 0 108.5 12.5 145.5 37.5s55.5 59.5 55.5 103.5h143z" />
    <glyph glyph-name="obreve" unicode="&#x14f;" horiz-adv-x="1159" 
d="M65 538c0 163.333 47.167 296.333 141.5 399s218.833 154 373.5 154c162.667 0 289 -49.333 379 -148s135 -233.667 135 -405c0 -170.667 -45.833 -306.334 -137.5 -407.001s-217.167 -151 -376.5 -151c-162.667 0 -289.167 50.833 -379.5 152.5
s-135.5 236.834 -135.5 405.501zM325 538c0 -236 85 -353.999 255 -353.999c78 0 139.833 30.667 185.5 92s68.5 148.666 68.5 261.999c0 232.667 -84.667 349 -254 349c-78 0 -140 -30.667 -186 -92s-69 -147 -69 -257zM924 1540c0 -92.667 -32 -169.999 -96 -231.999
s-146.667 -93 -248 -93c-97.333 0 -174.833 29.667 -232.5 89s-86.5 138 -86.5 236h141c0 -42.667 17.5 -76.834 52.5 -102.501s76.833 -38.5 125.5 -38.5c60 0 108.5 12.5 145.5 37.5s55.5 59.5 55.5 103.5h143z" />
    <glyph glyph-name="Odblacute" unicode="&#x150;" horiz-adv-x="1440" 
d="M80 745c0 208.667 57.168 385.167 171.501 529.5s267.166 216.5 458.499 216.5c210.667 0 371.667 -65.333 483 -196s167 -314 167 -550s-58.167 -423.333 -174.5 -562s-281.5 -208 -495.5 -208c-196.667 0 -347.5 68.667 -452.5 206s-157.5 325.333 -157.5 564z
M350.001 745c0 -171.333 29 -304 87 -398s142.333 -141 253 -141c130 0 229.167 46 297.5 138s102.5 225.667 102.5 401c0 343.333 -126.667 515 -380 515c-116 0 -205 -46.5 -267 -139.5s-93 -218.167 -93 -375.5zM797.001 1878l-226 -293h-190l169 293h247zM1217 1878
l-226 -293h-190l169 293h247z" />
    <glyph glyph-name="odblacute" unicode="&#x151;" horiz-adv-x="1159" 
d="M65 538c0 163.333 47.167 296.333 141.5 399s218.833 154 373.5 154c162.667 0 289 -49.333 379 -148s135 -233.667 135 -405c0 -170.667 -45.833 -306.334 -137.5 -407.001s-217.167 -151 -376.5 -151c-162.667 0 -289.167 50.833 -379.5 152.5
s-135.5 236.834 -135.5 405.501zM325 538c0 -236 85 -353.999 255 -353.999c78 0 139.833 30.667 185.5 92s68.5 148.666 68.5 261.999c0 232.667 -84.667 349 -254 349c-78 0 -140 -30.667 -186 -92s-69 -147 -69 -257zM657 1508l-226 -293h-190l169 293h247zM1077 1508
l-226 -293h-190l169 293h247z" />
    <glyph glyph-name="OE" unicode="&#x152;" horiz-adv-x="2055" 
d="M1320 1234l0.000976562 -343h484v-221h-484v-439h664v-231h-914v95c-106 -80 -239.333 -120 -400 -120c-196.667 0 -347.5 68.667 -452.5 206s-157.5 325.333 -157.5 564c0 208.667 57.167 385.167 171.5 529.5s267.166 216.5 458.499 216.5c153.333 0 280 -35 380 -105
v79h925v-231h-675zM330.001 745c0 -171.333 29 -304 87 -398s142.333 -141 253 -141c130 0 229.167 46 297.5 138s102.5 225.667 102.5 401c0 343.333 -126.667 515 -380 515c-116 0 -205 -46.5 -267 -139.5s-93 -218.167 -93 -375.5z" />
    <glyph glyph-name="oe" unicode="&#x153;" horiz-adv-x="1886" 
d="M1830 459l-765 -0.00195312c4.66699 -85.333 34 -151.666 88 -198.999s126.667 -71 218 -71c114 0 200.667 29.667 260 89l97 -191c-87.333 -71.333 -218.666 -107 -393.999 -107c-172.667 0 -306.334 52.667 -401.001 158c-92.667 -105.333 -220.334 -158 -383.001 -158
s-289.167 50.833 -379.5 152.5s-135.5 236.834 -135.5 405.501c0 163.333 47.167 296.333 141.5 399s218.833 154 373.5 154c174.667 0 307.334 -57 398.001 -171c104.667 114 234 171 388 171c155.333 0 280 -46.333 374 -139s141 -210.667 141 -354
c0 -30.667 -7 -77 -21 -139zM295 537.998c0 -236 85 -353.999 255 -353.999c78 0 139.833 30.667 185.5 92s68.5 148.666 68.5 261.999c0 232.667 -84.667 349 -254 349c-78 0 -140 -30.667 -186 -92s-69 -147 -69 -257zM1074 646.999h526.001
c-17.333 156.667 -104 235 -260 235c-142.667 0 -231.334 -78.333 -266.001 -235z" />
    <glyph glyph-name="Racute" unicode="&#x154;" horiz-adv-x="1251" 
d="M976 0l-391 604.999c-39.333 0.666992 -94.333 3 -165 7v-612h-270v1465c14.667 0 71 2.5 169 7.5s177 7.5 237 7.5c372 0 558 -144 558 -432c0 -86.667 -25.667 -165.667 -77 -237s-116 -121.666 -194 -150.999l433 -660h-300zM420 1239v-407.001
c48 -4 84.667 -6 110 -6c108.667 0 188.167 15.333 238.5 46s75.5 90.334 75.5 179.001c0 72 -27 122.333 -81 151s-139 43 -255 43c-28 0 -57.333 -2 -88 -6zM837 1878l-226 -293h-190l169 293h247z" />
    <glyph glyph-name="racute" unicode="&#x155;" horiz-adv-x="875" 
d="M754 838c-44.667 29.333 -93.666 44 -146.999 44c-58 0 -109.5 -26.333 -154.5 -79s-67.5 -117 -67.5 -193v-610h-250v1071h250v-98c70 78.667 163 118 279 118c85.333 0 150.666 -13 195.999 -39zM767.001 1508l-226 -293h-190l169 293h247z" />
    <glyph glyph-name="Rcedilla" unicode="&#x156;" horiz-adv-x="1251" 
d="M976 0l-391 604.999c-39.333 0.666992 -94.333 3 -165 7v-612h-270v1465c14.667 0 71 2.5 169 7.5s177 7.5 237 7.5c372 0 558 -144 558 -432c0 -86.667 -25.667 -165.667 -77 -237s-116 -121.666 -194 -150.999l433 -660h-300zM420 1239v-407.001
c48 -4 84.667 -6 110 -6c108.667 0 188.167 15.333 238.5 46s75.5 90.334 75.5 179.001c0 72 -27 122.333 -81 151s-139 43 -255 43c-28 0 -57.333 -2 -88 -6zM451 -425.002l-41 127c22.667 -6 46 -9 70 -9c87.333 0 131 30.333 131 91c0 22 -6.83301 43.333 -20.5 64
s-30.834 33.667 -51.501 39l85 89c120 -24.667 180 -93.667 180 -207c0 -64 -23.667 -114.167 -71 -150.5s-108.666 -54.5 -183.999 -54.5c-34 0 -66.667 3.66699 -98 11z" />
    <glyph glyph-name="rcedilla" unicode="&#x157;" horiz-adv-x="875" 
d="M754 838c-44.667 29.333 -93.666 44 -146.999 44c-58 0 -109.5 -26.333 -154.5 -79s-67.5 -117 -67.5 -193v-610h-250v1071h250v-98c70 78.667 163 118 279 118c85.333 0 150.666 -13 195.999 -39zM115.001 -425l-41 127c22.667 -6 46 -9 70 -9
c87.333 0 131 30.333 131 91c0 22 -6.83301 43.333 -20.5 64s-30.834 33.667 -51.501 39l85 89c120 -24.667 180 -93.667 180 -207c0 -64 -23.667 -114.167 -71 -150.5s-108.666 -54.5 -183.999 -54.5c-34 0 -66.667 3.66699 -98 11z" />
    <glyph glyph-name="Rcaron" unicode="&#x158;" horiz-adv-x="1251" 
d="M976 0l-391 604.999c-39.333 0.666992 -94.333 3 -165 7v-612h-270v1465c14.667 0 71 2.5 169 7.5s177 7.5 237 7.5c372 0 558 -144 558 -432c0 -86.667 -25.667 -165.667 -77 -237s-116 -121.666 -194 -150.999l433 -660h-300zM420 1239v-407.001
c48 -4 84.667 -6 110 -6c108.667 0 188.167 15.333 238.5 46s75.5 90.334 75.5 179.001c0 72 -27 122.333 -81 151s-139 43 -255 43c-28 0 -57.333 -2 -88 -6zM1001 1900l-368 -315h-107l-355 315h267l139 -149l157 149h267z" />
    <glyph glyph-name="rcaron" unicode="&#x159;" horiz-adv-x="875" 
d="M754 838c-44.667 29.333 -93.666 44 -146.999 44c-58 0 -109.5 -26.333 -154.5 -79s-67.5 -117 -67.5 -193v-610h-250v1071h250v-98c70 78.667 163 118 279 118c85.333 0 150.666 -13 195.999 -39zM941.001 1530l-368 -315h-107l-355 315h267l139 -149l157 149h267z" />
    <glyph glyph-name="Sacute" unicode="&#x15a;" horiz-adv-x="1047" 
d="M80 81l96 233.004c102.667 -72 203.667 -108 303 -108c152.667 0 229 53.333 229 160c0 50 -18 97.667 -54 143s-110.167 96.166 -222.5 152.499s-188 102.666 -227 138.999s-69 79.5 -90 129.5s-31.5 105.333 -31.5 166c0 113.333 41.5 207.333 124.5 282
s189.5 112 319.5 112c169.333 0 293.666 -31.667 372.999 -95l-79 -224c-91.333 65.333 -187.666 98 -288.999 98c-60 0 -106.5 -15.833 -139.5 -47.5s-49.5 -72.834 -49.5 -123.501c0 -84 93 -171.333 279 -262c98 -48 168.667 -92.167 212 -132.5s76.333 -87.333 99 -141
s34 -113.5 34 -179.5c0 -118.667 -46.833 -216.334 -140.5 -293.001s-219.167 -115 -376.5 -115c-136.667 0 -260 35.333 -370 106zM787 1878l-226 -293h-190l169 293h247z" />
    <glyph glyph-name="sacute" unicode="&#x15b;" horiz-adv-x="882" 
d="M69 69l89.001 199c74.667 -59.333 159 -89 253 -89c97.333 0 146 34.667 146 104c0 40.667 -14.667 74 -44 100s-86.333 56.667 -171 92c-184.667 76.667 -277 184 -277 322c0 92.667 35.333 164.834 106 216.501s161 77.5 271 77.5c111.333 0 216 -25 314 -75l-72 -194
c-54.667 46.667 -130.667 70 -228 70c-87.333 0 -131 -34.667 -131 -104c0 -27.333 14.333 -52 43 -74s90 -51.5 184 -88.5s161.667 -81.833 203 -134.5s62 -116.334 62 -191.001c0 -99.333 -36.833 -177.5 -110.5 -234.5s-173.834 -85.5 -300.501 -85.5
c-71.333 0 -128.5 5.83301 -171.5 17.5s-98.167 35.5 -165.5 71.5zM677.001 1508l-226 -293h-190l169 293h247z" />
    <glyph glyph-name="Scircumflex" unicode="&#x15c;" horiz-adv-x="1047" 
d="M80 81l96 233.004c102.667 -72 203.667 -108 303 -108c152.667 0 229 53.333 229 160c0 50 -18 97.667 -54 143s-110.167 96.166 -222.5 152.499s-188 102.666 -227 138.999s-69 79.5 -90 129.5s-31.5 105.333 -31.5 166c0 113.333 41.5 207.333 124.5 282
s189.5 112 319.5 112c169.333 0 293.666 -31.667 372.999 -95l-79 -224c-91.333 65.333 -187.666 98 -288.999 98c-60 0 -106.5 -15.833 -139.5 -47.5s-49.5 -72.834 -49.5 -123.501c0 -84 93 -171.333 279 -262c98 -48 168.667 -92.167 212 -132.5s76.333 -87.333 99 -141
s34 -113.5 34 -179.5c0 -118.667 -46.833 -216.334 -140.5 -293.001s-219.167 -115 -376.5 -115c-136.667 0 -260 35.333 -370 106zM684 1585l-157 149l-139 -149h-267l355 315h107l368 -315h-267z" />
    <glyph glyph-name="scircumflex" unicode="&#x15d;" horiz-adv-x="882" 
d="M69 69l89.001 199c74.667 -59.333 159 -89 253 -89c97.333 0 146 34.667 146 104c0 40.667 -14.667 74 -44 100s-86.333 56.667 -171 92c-184.667 76.667 -277 184 -277 322c0 92.667 35.333 164.834 106 216.501s161 77.5 271 77.5c111.333 0 216 -25 314 -75l-72 -194
c-54.667 46.667 -130.667 70 -228 70c-87.333 0 -131 -34.667 -131 -104c0 -27.333 14.333 -52 43 -74s90 -51.5 184 -88.5s161.667 -81.833 203 -134.5s62 -116.334 62 -191.001c0 -99.333 -36.833 -177.5 -110.5 -234.5s-173.834 -85.5 -300.501 -85.5
c-71.333 0 -128.5 5.83301 -171.5 17.5s-98.167 35.5 -165.5 71.5zM584.001 1215l-157 149l-139 -149h-267l355 315h107l368 -315h-267z" />
    <glyph glyph-name="Scedilla" unicode="&#x15e;" horiz-adv-x="1047" 
d="M80 81l96 233.004c102.667 -72 203.667 -108 303 -108c152.667 0 229 53.333 229 160c0 50 -18 97.667 -54 143s-110.167 96.166 -222.5 152.499s-188 102.666 -227 138.999s-69 79.5 -90 129.5s-31.5 105.333 -31.5 166c0 113.333 41.5 207.333 124.5 282
s189.5 112 319.5 112c169.333 0 293.666 -31.667 372.999 -95l-79 -224c-91.333 65.333 -187.666 98 -288.999 98c-60 0 -106.5 -15.833 -139.5 -47.5s-49.5 -72.834 -49.5 -123.501c0 -84 93 -171.333 279 -262c98 -48 168.667 -92.167 212 -132.5s76.333 -87.333 99 -141
s34 -113.5 34 -179.5c0 -118.667 -46.833 -216.334 -140.5 -293.001s-219.167 -115 -376.5 -115c-136.667 0 -260 35.333 -370 106zM315 -424.996l-41 127c22.667 -6 46 -9 70 -9c87.333 0 131 30.333 131 91c0 22 -6.83301 43.333 -20.5 64s-30.834 33.667 -51.501 39
l85 89c120 -24.667 180 -93.667 180 -207c0 -64 -23.667 -114.167 -71 -150.5s-108.666 -54.5 -183.999 -54.5c-34 0 -66.667 3.66699 -98 11z" />
    <glyph glyph-name="scedilla" unicode="&#x15f;" horiz-adv-x="882" 
d="M69 69l89.001 199c74.667 -59.333 159 -89 253 -89c97.333 0 146 34.667 146 104c0 40.667 -14.667 74 -44 100s-86.333 56.667 -171 92c-184.667 76.667 -277 184 -277 322c0 92.667 35.333 164.834 106 216.501s161 77.5 271 77.5c111.333 0 216 -25 314 -75l-72 -194
c-54.667 46.667 -130.667 70 -228 70c-87.333 0 -131 -34.667 -131 -104c0 -27.333 14.333 -52 43 -74s90 -51.5 184 -88.5s161.667 -81.833 203 -134.5s62 -116.334 62 -191.001c0 -99.333 -36.833 -177.5 -110.5 -234.5s-173.834 -85.5 -300.501 -85.5
c-71.333 0 -128.5 5.83301 -171.5 17.5s-98.167 35.5 -165.5 71.5zM335.001 -425l-41 127c22.667 -6 46 -9 70 -9c87.333 0 131 30.333 131 91c0 22 -6.83301 43.333 -20.5 64s-30.834 33.667 -51.501 39l85 89c120 -24.667 180 -93.667 180 -207
c0 -64 -23.667 -114.167 -71 -150.5s-108.666 -54.5 -183.999 -54.5c-34 0 -66.667 3.66699 -98 11z" />
    <glyph glyph-name="Scaron" unicode="&#x160;" horiz-adv-x="1047" 
d="M80 81l96 233.004c102.667 -72 203.667 -108 303 -108c152.667 0 229 53.333 229 160c0 50 -18 97.667 -54 143s-110.167 96.166 -222.5 152.499s-188 102.666 -227 138.999s-69 79.5 -90 129.5s-31.5 105.333 -31.5 166c0 113.333 41.5 207.333 124.5 282
s189.5 112 319.5 112c169.333 0 293.666 -31.667 372.999 -95l-79 -224c-91.333 65.333 -187.666 98 -288.999 98c-60 0 -106.5 -15.833 -139.5 -47.5s-49.5 -72.834 -49.5 -123.501c0 -84 93 -171.333 279 -262c98 -48 168.667 -92.167 212 -132.5s76.333 -87.333 99 -141
s34 -113.5 34 -179.5c0 -118.667 -46.833 -216.334 -140.5 -293.001s-219.167 -115 -376.5 -115c-136.667 0 -260 35.333 -370 106zM931 1900l-368 -315h-107l-355 315h267l139 -149l157 149h267z" />
    <glyph glyph-name="scaron" unicode="&#x161;" horiz-adv-x="882" 
d="M113 69l89.001 199c74.667 -59.333 159 -89 253 -89c97.333 0 146 34.667 146 104c0 40.667 -14.667 74 -44 100s-86.333 56.667 -171 92c-184.667 76.667 -277 184 -277 322c0 92.667 35.333 164.834 106 216.501s161 77.5 271 77.5c111.333 0 216 -25 314 -75l-72 -194
c-54.667 46.667 -130.667 70 -228 70c-87.333 0 -131 -34.667 -131 -104c0 -27.333 14.333 -52 43 -74s90 -51.5 184 -88.5s161.667 -81.833 203 -134.5s62 -116.334 62 -191.001c0 -99.333 -36.833 -177.5 -110.5 -234.5s-173.834 -85.5 -300.501 -85.5
c-71.333 0 -128.5 5.83301 -171.5 17.5s-98.167 35.5 -165.5 71.5zM895.001 1530l-368 -315h-107l-355 315h267l139 -149l157 149h267z" />
    <glyph glyph-name="Tcedilla" unicode="&#x162;" horiz-adv-x="1253" 
d="M746 1234v-1234h-260v1234h-466v231h1213v-231h-487zM459 -425l-41 127c22.667 -6 46 -9 70 -9c87.333 0 131 30.333 131 91c0 22 -6.83301 43.333 -20.5 64s-30.834 33.667 -51.501 39l85 89c120 -24.667 180 -93.667 180 -207c0 -64 -23.667 -114.167 -71 -150.5
s-108.666 -54.5 -183.999 -54.5c-34 0 -66.667 3.66699 -98 11z" />
    <glyph glyph-name="tcedilla" unicode="&#x163;" horiz-adv-x="812" 
d="M173 870l-124 0.00195312v201h124v218l250 92v-310h294v-201h-294v-469c0 -76.667 12 -130.834 36 -162.501s66 -47.5 126 -47.5s116 16.333 168 49v-230c-58 -20 -140.667 -30 -248 -30c-106.667 0 -188.667 30.167 -246 90.5s-86 146.166 -86 257.499v542z
M241 -424.998l-41 127c22.667 -6 46 -9 70 -9c87.333 0 131 30.333 131 91c0 22 -6.83301 43.333 -20.5 64s-30.834 33.667 -51.501 39l85 89c120 -24.667 180 -93.667 180 -207c0 -64 -23.667 -114.167 -71 -150.5s-108.666 -54.5 -183.999 -54.5
c-34 0 -66.667 3.66699 -98 11z" />
    <glyph glyph-name="Tcaron" unicode="&#x164;" horiz-adv-x="1253" 
d="M746 1234v-1234h-260v1234h-466v231h1213v-231h-487zM1041 1900l-368 -315h-107l-355 315h267l139 -149l157 149h267z" />
    <glyph glyph-name="tcaron" unicode="&#x165;" horiz-adv-x="1117" 
d="M173 870l-124 0.00195312v201h124v218l250 92v-310h294v-201h-294v-469c0 -76.667 12 -130.834 36 -162.501s66 -47.5 126 -47.5s116 16.333 168 49v-230c-58 -20 -140.667 -30 -248 -30c-106.667 0 -188.667 30.167 -246 90.5s-86 146.166 -86 257.499v542zM885 917.002
l-63 85.001c44 33.333 71 57.833 81 73.5s15 32.167 15 49.5s-11.5 37.5 -34.5 60.5s-34.5 48.167 -34.5 75.5c0 78.667 39 118 117 118c82 0 123 -46.333 123 -139c0 -130.667 -68 -238.334 -204 -323.001z" />
    <glyph glyph-name="Tbar" unicode="&#x166;" horiz-adv-x="1253" 
d="M1233 1236h-488v-456h318v-164h-318v-616h-260v616h-317v164h317v456h-465v229h1213v-229z" />
    <glyph glyph-name="tbar" unicode="&#x167;" horiz-adv-x="812" 
d="M754 10c-58 -20 -140.667 -30 -248 -30c-222.667 0 -334 116 -334 348v170h-123v155h123v217h-123v201h123v217l252 92v-309h293v-201h-293v-217h242v-155h-242v-97c0 -78.667 11.667 -133 35 -163c24.667 -32 67 -48 127 -48c58 0 114 16.667 168 50v-230z" />
    <glyph glyph-name="Utilde" unicode="&#x168;" horiz-adv-x="1388" 
d="M150 1465l260 0.000976562v-993c0 -78.667 24 -142.667 72 -192s114 -74 198 -74c94 0 167.167 24.167 219.5 72.5s78.5 114.5 78.5 198.5v988h260v-1008c0 -150.667 -50.5 -268.667 -151.5 -354s-235.833 -128 -404.5 -128c-170 0 -301.167 41.667 -393.5 125
s-138.5 202.666 -138.5 357.999v1007zM484 1555h-144.999c12.667 76 38.167 137.833 76.5 185.5s85.833 71.5 142.5 71.5c52 0 104 -12.833 156 -38.5s85.333 -38.5 100 -38.5c40.667 0 69.667 25.667 87 77h148c-25.333 -99.333 -56.333 -167 -93 -203
s-82.667 -54 -138 -54c-41.333 0 -88.5 12.833 -141.5 38.5s-87.5 38.5 -103.5 38.5c-34.667 0 -64.334 -25.667 -89.001 -77z" />
    <glyph glyph-name="utilde" unicode="&#x169;" horiz-adv-x="1210" 
d="M825 -1l-0.000976562 90c-35.333 -30 -84 -55.667 -146 -77s-119 -32 -171 -32c-248.667 0 -373 132 -373 396v695h250v-676c0 -137.333 61.667 -206 185 -206c56.667 0 109.334 14.667 158.001 44s81 63.333 97 102v736h250v-1072h-250zM395.999 1185h-144.999
c12.667 76 38.167 137.833 76.5 185.5s85.833 71.5 142.5 71.5c52 0 104 -12.833 156 -38.5s85.333 -38.5 100 -38.5c40.667 0 69.667 25.667 87 77h148c-25.333 -99.333 -56.333 -167 -93 -203s-82.667 -54 -138 -54c-41.333 0 -88.5 12.833 -141.5 38.5
s-87.5 38.5 -103.5 38.5c-34.667 0 -64.334 -25.667 -89.001 -77z" />
    <glyph glyph-name="Umacron" unicode="&#x16a;" horiz-adv-x="1388" 
d="M150 1465l260 0.000976562v-993c0 -78.667 24 -142.667 72 -192s114 -74 198 -74c94 0 167.167 24.167 219.5 72.5s78.5 114.5 78.5 198.5v988h260v-1008c0 -150.667 -50.5 -268.667 -151.5 -354s-235.833 -128 -404.5 -128c-170 0 -301.167 41.667 -393.5 125
s-138.5 202.666 -138.5 357.999v1007zM1063 1766v-181h-738v181h738z" />
    <glyph glyph-name="umacron" unicode="&#x16b;" horiz-adv-x="1210" 
d="M825 -1l-0.000976562 90c-35.333 -30 -84 -55.667 -146 -77s-119 -32 -171 -32c-248.667 0 -373 132 -373 396v695h250v-676c0 -137.333 61.667 -206 185 -206c56.667 0 109.334 14.667 158.001 44s81 63.333 97 102v736h250v-1072h-250zM973.999 1396v-181h-738v181h738
z" />
    <glyph glyph-name="Ubreve" unicode="&#x16c;" horiz-adv-x="1388" 
d="M150 1465l260 0.000976562v-993c0 -78.667 24 -142.667 72 -192s114 -74 198 -74c94 0 167.167 24.167 219.5 72.5s78.5 114.5 78.5 198.5v988h260v-1008c0 -150.667 -50.5 -268.667 -151.5 -354s-235.833 -128 -404.5 -128c-170 0 -301.167 41.667 -393.5 125
s-138.5 202.666 -138.5 357.999v1007zM1025 1910c0 -92.667 -32 -169.999 -96 -231.999s-146.667 -93 -248 -93c-97.333 0 -174.833 29.667 -232.5 89s-86.5 138 -86.5 236h141c0 -42.667 17.5 -76.834 52.5 -102.501s76.833 -38.5 125.5 -38.5c60 0 108.5 12.5 145.5 37.5
s55.5 59.5 55.5 103.5h143z" />
    <glyph glyph-name="ubreve" unicode="&#x16d;" horiz-adv-x="1210" 
d="M825 -1l-0.000976562 90c-35.333 -30 -84 -55.667 -146 -77s-119 -32 -171 -32c-248.667 0 -373 132 -373 396v695h250v-676c0 -137.333 61.667 -206 185 -206c56.667 0 109.334 14.667 158.001 44s81 63.333 97 102v736h250v-1072h-250zM935.999 1540
c0 -92.667 -32 -169.999 -96 -231.999s-146.667 -93 -248 -93c-97.333 0 -174.833 29.667 -232.5 89s-86.5 138 -86.5 236h141c0 -42.667 17.5 -76.834 52.5 -102.501s76.833 -38.5 125.5 -38.5c60 0 108.5 12.5 145.5 37.5s55.5 59.5 55.5 103.5h143z" />
    <glyph glyph-name="Uring" unicode="&#x16e;" horiz-adv-x="1388" 
d="M150 1465l260 0.000976562v-993c0 -78.667 24 -142.667 72 -192s114 -74 198 -74c94 0 167.167 24.167 219.5 72.5s78.5 114.5 78.5 198.5v988h260v-1008c0 -150.667 -50.5 -268.667 -151.5 -354s-235.833 -128 -404.5 -128c-170 0 -301.167 41.667 -393.5 125
s-138.5 202.666 -138.5 357.999v1007zM695 1586c-70 0 -129.501 19.333 -178.501 58s-73.5 89.667 -73.5 153c0 60.667 25.333 111 76 151s109.334 60 176.001 60c68.667 0 127.834 -19.667 177.501 -59s74.5 -90 74.5 -152s-24.833 -112.667 -74.5 -152
s-108.834 -59 -177.501 -59zM693.999 1892c-29.333 0 -54.333 -8.5 -75 -25.5s-31 -40.5 -31 -70.5c0 -64 35.333 -96 106 -96s106 32 106 96s-35.333 96 -106 96z" />
    <glyph glyph-name="uring" unicode="&#x16f;" horiz-adv-x="1210" 
d="M825 -1l-0.000976562 90c-35.333 -30 -84 -55.667 -146 -77s-119 -32 -171 -32c-248.667 0 -373 132 -373 396v695h250v-676c0 -137.333 61.667 -206 185 -206c56.667 0 109.334 14.667 158.001 44s81 63.333 97 102v736h250v-1072h-250zM604.999 1216
c-70 0 -129.501 19.333 -178.501 58s-73.5 89.667 -73.5 153c0 60.667 25.333 111 76 151s109.334 60 176.001 60c68.667 0 127.834 -19.667 177.501 -59s74.5 -90 74.5 -152s-24.833 -112.667 -74.5 -152s-108.834 -59 -177.501 -59zM603.998 1522
c-29.333 0 -54.333 -8.5 -75 -25.5s-31 -40.5 -31 -70.5c0 -64 35.333 -96 106 -96s106 32 106 96s-35.333 96 -106 96z" />
    <glyph glyph-name="Udblacute" unicode="&#x170;" horiz-adv-x="1388" 
d="M150 1465l260 0.000976562v-993c0 -78.667 24 -142.667 72 -192s114 -74 198 -74c94 0 167.167 24.167 219.5 72.5s78.5 114.5 78.5 198.5v988h260v-1008c0 -150.667 -50.5 -268.667 -151.5 -354s-235.833 -128 -404.5 -128c-170 0 -301.167 41.667 -393.5 125
s-138.5 202.666 -138.5 357.999v1007zM767 1878l-226 -293h-190l169 293h247zM1187 1878l-226 -293h-190l169 293h247z" />
    <glyph glyph-name="udblacute" unicode="&#x171;" horiz-adv-x="1210" 
d="M825 -1l-0.000976562 90c-35.333 -30 -84 -55.667 -146 -77s-119 -32 -171 -32c-248.667 0 -373 132 -373 396v695h250v-676c0 -137.333 61.667 -206 185 -206c56.667 0 109.334 14.667 158.001 44s81 63.333 97 102v736h250v-1072h-250zM666.999 1508l-226 -293h-190
l169 293h247zM1087 1508l-226 -293h-190l169 293h247z" />
    <glyph glyph-name="Uogonek" unicode="&#x172;" horiz-adv-x="1388" 
d="M1237 457c0 -152.667 -50.001 -271.001 -150.001 -355.001c-75.333 -63.333 -169.666 -103 -282.999 -119c-45.333 -31.333 -68 -75 -68 -131c0 -30.667 13.667 -56 41 -76c24.667 -18 52.667 -27 84 -27c34.667 0 66 13 94 39l65 -124
c-52 -38.667 -119.333 -58 -202 -58c-73.333 0 -134 17 -182 51c-54.667 38.667 -82 93 -82 163c0 60 11.333 113.333 34 160c-140 14 -248 62.167 -324 144.5s-114 193.833 -114 334.5v1005h260v-993c0 -81.333 24.5 -145.666 73.5 -192.999s114.5 -71 196.5 -71
c94.667 0 168.167 24.5 220.5 73.5s78.5 114.5 78.5 196.5v987h258v-1007z" />
    <glyph glyph-name="uogonek" unicode="&#x173;" horiz-adv-x="1210" 
d="M1242 -336c-52 -38.667 -119.335 -58 -202.002 -58c-73.333 0 -134 17 -182 51c-54.667 38.667 -82 93 -82 163c0 72.667 16.333 132.667 49 180v89c-36 -30.667 -84.667 -56.5 -146 -77.5s-118.333 -31.5 -171 -31.5c-248.667 0 -373 132.333 -373 397v694h250v-676
c0 -138 61.333 -207 184 -207c50.667 0 100.334 13.333 149.001 40c52.667 28 88.334 64 107.001 108v735h250v-1071h-15c-30 -9.33301 -54.5 -28.333 -73.5 -57s-28.5 -59 -28.5 -91c0 -30.667 13.333 -56 40 -76c24.667 -18 53 -27 85 -27c34.667 0 66 13 94 39z" />
    <glyph glyph-name="Wcircumflex" unicode="&#x174;" horiz-adv-x="1810" 
d="M1331 -20h-107l-320 924l-311 -924h-107l-481 1485h271l275 -884l297 884h114l298 -884l274 884h271zM1062 1585l-157 149l-139 -149h-267l355 315h107l368 -315h-267z" />
    <glyph glyph-name="wcircumflex" unicode="&#x175;" horiz-adv-x="1605" 
d="M1187 -20h-91l-294 658l-293 -658h-92l-404 1091h263l215 -639l262 639h90l271 -643l232 643h246zM955 1215l-157 149l-139 -149h-267l355 315h107l368 -315h-267z" />
    <glyph glyph-name="Ycircumflex" unicode="&#x176;" horiz-adv-x="1256" 
d="M759 601v-601h-260v601l-494 864h276l347 -625l348 625h275zM776 1585l-157 149l-139 -149h-267l355 315h107l368 -315h-267z" />
    <glyph glyph-name="ycircumflex" unicode="&#x177;" horiz-adv-x="1093" 
d="M609 -172c-26.667 -71.333 -83.832 -130.5 -171.499 -177.5s-189.834 -70.5 -306.501 -70.5v221c192.667 0 289 48.333 289 145c0 64 -26.667 162 -80 294l-335 831h259l292 -740l263 740h259zM689.002 1215l-157 149l-139 -149h-267l355 315h107l368 -315h-267z" />
    <glyph glyph-name="Ydieresis" unicode="&#x178;" horiz-adv-x="1256" 
d="M759 601v-601h-260v601l-494 864h276l347 -625l348 625h275zM328 1870c39.333 0 72.833 -14 100.5 -42s41.5 -61.667 41.5 -101s-13.833 -72.833 -41.5 -100.5s-61.167 -41.5 -100.5 -41.5s-73 13.833 -101 41.5s-42 61.167 -42 100.5s14 73 42 101s61.667 42 101 42z
M948 1870c39.333 0 72.833 -14 100.5 -42s41.5 -61.667 41.5 -101s-13.833 -72.833 -41.5 -100.5s-61.167 -41.5 -100.5 -41.5s-73 13.833 -101 41.5s-42 61.167 -42 100.5s14 73 42 101s61.667 42 101 42z" />
    <glyph glyph-name="Zacute" unicode="&#x179;" horiz-adv-x="1147" 
d="M80 0v84l611 1150h-601v231h955v-84l-613 -1150h635v-231h-987zM817 1878l-226 -293h-190l169 293h247z" />
    <glyph glyph-name="zacute" unicode="&#x17a;" horiz-adv-x="1082" 
d="M65 0v85l581 768h-571v218h936v-88l-560 -765h566v-218h-952zM797 1508l-226 -293h-190l169 293h247z" />
    <glyph glyph-name="Zdot" unicode="&#x17b;" horiz-adv-x="1147" 
d="M80 0v84l611 1150h-601v231h955v-84l-613 -1150h635v-231h-987zM570 1887c41.333 0 76.833 -14.833 106.5 -44.5s44.5 -65.167 44.5 -106.5s-14.833 -76.833 -44.5 -106.5s-65.167 -44.5 -106.5 -44.5c-42 0 -77.833 14.833 -107.5 44.5s-44.5 65.167 -44.5 106.5
s14.833 76.833 44.5 106.5s65.5 44.5 107.5 44.5z" />
    <glyph glyph-name="zdot" unicode="&#x17c;" horiz-adv-x="1082" 
d="M65 0v85l581 768h-571v218h936v-88l-560 -765h566v-218h-952zM520 1517c41.333 0 76.833 -14.833 106.5 -44.5s44.5 -65.167 44.5 -106.5s-14.833 -76.833 -44.5 -106.5s-65.167 -44.5 -106.5 -44.5c-42 0 -77.833 14.833 -107.5 44.5s-44.5 65.167 -44.5 106.5
s14.833 76.833 44.5 106.5s65.5 44.5 107.5 44.5z" />
    <glyph glyph-name="Zcaron" unicode="&#x17d;" horiz-adv-x="1147" 
d="M80 0v84l611 1150h-601v231h955v-84l-613 -1150h635v-231h-987zM991 1900l-368 -315h-107l-355 315h267l139 -149l157 149h267z" />
    <glyph glyph-name="zcaron" unicode="&#x17e;" horiz-adv-x="1082" 
d="M65 0v85l581 768h-571v218h936v-88l-560 -765h566v-218h-952zM961 1530l-368 -315h-107l-355 315h267l139 -149l157 149h267z" />
    <glyph glyph-name="longs" unicode="&#x17f;" horiz-adv-x="739" 
d="M768 1471l-68 -190c-48.667 19.333 -93 29 -133 29c-53.333 0 -94 -18.167 -122 -54.5s-42 -89.833 -42 -160.5v-1095h-249v1068c0 134 33.667 240.333 101 319c70 82 168.667 123 296 123c70.667 0 143 -13 217 -39z" />
    <glyph glyph-name="florin" unicode="&#x192;" horiz-adv-x="795" 
d="M-206 -205c56 10.667 108.834 31 158.501 61s77.167 61.667 82.5 95l160 933c-46 -1.33301 -97 -8 -153 -20l43 220l148 1c64.667 283.333 219 425 463 425c38.667 0 98 -13 178 -39l-51 -201c-68.667 24 -115 36 -139 36c-106.667 0 -174 -74 -202 -222
c60.667 -2 144 2.33301 250 13l-20 -171c-116 -16 -204.667 -26 -266 -30l-161 -955c-14.667 -86.667 -50 -157.5 -106 -212.5s-115.333 -91.667 -178 -110s-103.334 -27.5 -122.001 -27.5c-14.667 0 -27 13.333 -37 40l-21 56c-6 17.333 -11 32.666 -15 45.999
c-4 14 -7 26 -9 36c-2 10.667 -3 19.334 -3 26.001z" />
    <glyph glyph-name="Aringacute" unicode="&#x1fa;" horiz-adv-x="1297" 
d="M1292 0h-287l-107 297h-502l-102 -297h-289l545 1290c-102.667 34 -154 96 -154 186c0 87.333 48.333 148.333 145 183l125 219h247l-175 -213c108 -29.333 162 -92.333 162 -189c0 -90 -52.667 -152 -158 -186zM753 1475c0 57.333 -35.332 86.001 -105.999 86.001
c-26.667 0 -50.334 -7 -71.001 -21c-23.333 -16.667 -35 -38.334 -35 -65.001c0 -57.333 35.333 -86 106 -86s106 28.667 106 86zM822.001 496.001l-176 488l-176 -488h352z" />
    <glyph glyph-name="aringacute" unicode="&#x1fb;" horiz-adv-x="1091" 
d="M731 107c-22.667 -37.333 -62.168 -67.833 -118.501 -91.5s-115.166 -35.5 -176.499 -35.5c-115.333 0 -206 28.833 -272 86.5s-99 139.5 -99 245.5c0 124 46.5 221 139.5 291s225.167 105 396.5 105c29.333 0 64 -5 104 -15c0 126 -79.667 189 -239 189
c-94 0 -172.667 -15.667 -236 -47l-54 194c86 41.333 188.333 62 307 62c163.333 0 283 -37.167 359 -111.5s114 -215.166 114 -422.499v-229c0 -142.667 28.667 -232.334 86 -269.001c-20.667 -36 -43.667 -58.167 -69 -66.5s-54.333 -12.5 -87 -12.5
c-36 0 -68.333 13.333 -97 40s-48 55.667 -58 87zM706.999 504c-42.667 8.66699 -74.667 13 -96 13c-197.333 0 -296 -64.667 -296 -194c0 -96 55.667 -144 167 -144c150 0 225 75 225 225v100zM504.999 1166c-70 0 -129.501 19.333 -178.501 58s-73.5 89.667 -73.5 153
c0 60.667 25.333 111 76 151s109.334 60 176.001 60c68.667 0 127.834 -19.667 177.501 -59s74.5 -90 74.5 -152s-24.833 -112.667 -74.5 -152s-108.834 -59 -177.501 -59zM503.998 1472c-29.333 0 -54.333 -8.5 -75 -25.5s-31 -40.5 -31 -70.5c0 -64 35.333 -96 106 -96
s106 32 106 96s-35.333 96 -106 96zM786.998 1931l-226 -293h-190l169 293h247z" />
    <glyph glyph-name="AEacute" unicode="&#x1fc;" horiz-adv-x="1915" 
d="M1180 1234v-343h484v-221h-484v-439h664v-231h-924v297h-446l-183 -297h-289l888 1465h965v-231h-675zM920 496v581l-352 -581h352zM1497 1878l-226 -293h-190l169 293h247z" />
    <glyph glyph-name="aeacute" unicode="&#x1fd;" horiz-adv-x="1767" 
d="M692 504c-33.333 8.66699 -65.333 13 -96 13c-197.333 0 -296 -64.667 -296 -194c0 -96 55.667 -144 167 -144c150 0 225 75 225 225v100zM1711 459l-775.001 -0.000976562c4.66699 -86.667 37 -154.334 97 -203.001c56.667 -44.667 129.667 -67 219 -67
c113.333 0 200 29.667 260 89l97 -191c-87.333 -71.333 -218.666 -107 -393.999 -107c-126.667 0 -216 22 -268 66l3 -46h-198c-8.66699 22.667 -20.667 57.667 -36 105c-26 -41.333 -70 -73.333 -132 -96c-52 -19.333 -106.333 -29 -163 -29
c-111.333 0 -199.666 27 -264.999 81c-70.667 58.667 -106 142.334 -106 251.001c0 139.333 57 243.333 171 312c93.333 56 215 84 365 84c34 0 68.667 -5 104 -15c0 126.667 -79.667 190 -239 190c-92.667 0 -171.334 -16 -236.001 -48l-54 194
c86 41.333 188.333 62 307 62c189.333 0 319 -49 389 -147c100 98 220 147 360 147c150 0 272.667 -44.333 368 -133c98 -91.333 147 -211.333 147 -360c0 -33.333 -7 -79.666 -21 -138.999zM1221 881.999c-72 0 -132.666 -21.667 -181.999 -65
c-46.667 -41.333 -78 -98 -94 -170h536c-16.667 156.667 -103.334 235 -260.001 235zM1147 1508l-226 -293h-190l169 293h247z" />
    <glyph glyph-name="Oslashacute" unicode="&#x1fe;" horiz-adv-x="1400" 
d="M1173 1491l167.001 -0.00195312l-155 -211c103.333 -129.333 155 -307.666 155 -534.999c0 -236 -58.167 -423.333 -174.5 -562s-281.5 -208 -495.5 -208c-144 0 -264 37.667 -360 113l-83 -113h-167l154 210c-102.667 136.667 -154 323.334 -154 560.001
c0 208.667 57.167 385.167 171.5 529.5s267.166 216.5 458.499 216.5c161.333 0 294 -38.667 398 -116zM383.001 414.998l556.999 758c-61.333 58 -144.666 87 -249.999 87c-116 0 -205 -46.5 -267 -139.5s-93 -218.167 -93 -375.5c0 -132 17.667 -242 53 -330zM1020 1055
l-560 -762.999c54.667 -57.333 124.667 -86 210 -86c130 0 229.167 46 297.5 138s102.5 225.667 102.5 401c0 127.333 -16.667 230.666 -50 309.999zM977 1878l-226 -293h-190l169 293h247z" />
    <glyph glyph-name="oslashacute" unicode="&#x1ff;" horiz-adv-x="1159" 
d="M1094 1091l-123.001 -162c82 -97.333 123 -227.666 123 -390.999c0 -170.667 -45.833 -306.334 -137.5 -407.001s-217.167 -151 -376.5 -151c-107.333 0 -199.666 23 -276.999 69l-53 -69h-185l125 165c-83.333 100 -125 231 -125 393
c0 163.333 47.167 296.333 141.5 399s218.833 154 373.5 154c108 0 200.667 -22.333 278 -67l51 67h185zM723.999 847c-38 26.667 -86 40 -144 40c-78 0 -140 -30.667 -186 -92s-69 -147 -69 -257c0 -73.333 7.66699 -135 23 -185zM434.999 224
c38 -26.667 86.333 -39.999 145 -39.999c78 0 139.833 30.667 185.5 92s68.5 148.666 68.5 261.999c0 70.667 -7.66699 130.667 -23 180zM816.999 1508l-226 -293h-190l169 293h247z" />
    <glyph glyph-name="Scommaaccent" unicode="&#x218;" horiz-adv-x="1047" 
d="M80 81l96 233.004c102.667 -72 203.667 -108 303 -108c152.667 0 229 53.333 229 160c0 50 -18 97.667 -54 143s-110.167 96.166 -222.5 152.499s-188 102.666 -227 138.999s-69 79.5 -90 129.5s-31.5 105.333 -31.5 166c0 113.333 41.5 207.333 124.5 282
s189.5 112 319.5 112c169.333 0 293.666 -31.667 372.999 -95l-79 -224c-91.333 65.333 -187.666 98 -288.999 98c-60 0 -106.5 -15.833 -139.5 -47.5s-49.5 -72.834 -49.5 -123.501c0 -84 93 -171.333 279 -262c98 -48 168.667 -92.167 212 -132.5s76.333 -87.333 99 -141
s34 -113.5 34 -179.5c0 -118.667 -46.833 -216.334 -140.5 -293.001s-219.167 -115 -376.5 -115c-136.667 0 -260 35.333 -370 106zM416 -551.996l-63 85.001c44 33.333 71 57.833 81 73.5s15 32.167 15 49.5s-11.5 37.5 -34.5 60.5s-34.5 48.167 -34.5 75.5
c0 78.667 39 118 117 118c82 0 123 -46.333 123 -139c0 -130.667 -68 -238.334 -204 -323.001z" />
    <glyph glyph-name="scommaaccent" unicode="&#x219;" horiz-adv-x="882" 
d="M69 69l89.001 199c74.667 -59.333 159 -89 253 -89c97.333 0 146 34.667 146 104c0 40.667 -14.667 74 -44 100s-86.333 56.667 -171 92c-184.667 76.667 -277 184 -277 322c0 92.667 35.333 164.834 106 216.501s161 77.5 271 77.5c111.333 0 216 -25 314 -75l-72 -194
c-54.667 46.667 -130.667 70 -228 70c-87.333 0 -131 -34.667 -131 -104c0 -27.333 14.333 -52 43 -74s90 -51.5 184 -88.5s161.667 -81.833 203 -134.5s62 -116.334 62 -191.001c0 -99.333 -36.833 -177.5 -110.5 -234.5s-173.834 -85.5 -300.501 -85.5
c-71.333 0 -128.5 5.83301 -171.5 17.5s-98.167 35.5 -165.5 71.5zM356.001 -552l-63 85.001c44 33.333 71 57.833 81 73.5s15 32.167 15 49.5s-11.5 37.5 -34.5 60.5s-34.5 48.167 -34.5 75.5c0 78.667 39 118 117 118c82 0 123 -46.333 123 -139
c0 -130.667 -68 -238.334 -204 -323.001z" />
    <glyph glyph-name="Tcommaaccent" unicode="&#x21a;" horiz-adv-x="1253" 
d="M746 1234v-1234h-260v1234h-466v231h1213v-231h-487zM532 -552l-63 85.001c44 33.333 71 57.833 81 73.5s15 32.167 15 49.5s-11.5 37.5 -34.5 60.5s-34.5 48.167 -34.5 75.5c0 78.667 39 118 117 118c82 0 123 -46.333 123 -139c0 -130.667 -68 -238.334 -204 -323.001z
" />
    <glyph glyph-name="tcommaaccent" unicode="&#x21b;" horiz-adv-x="812" 
d="M173 870l-124 0.00195312v201h124v218l250 92v-310h294v-201h-294v-469c0 -76.667 12 -130.834 36 -162.501s66 -47.5 126 -47.5s116 16.333 168 49v-230c-58 -20 -140.667 -30 -248 -30c-106.667 0 -188.667 30.167 -246 90.5s-86 146.166 -86 257.499v542z
M392 -551.998l-63 85.001c44 33.333 71 57.833 81 73.5s15 32.167 15 49.5s-11.5 37.5 -34.5 60.5s-34.5 48.167 -34.5 75.5c0 78.667 39 118 117 118c82 0 123 -46.333 123 -139c0 -130.667 -68 -238.334 -204 -323.001z" />
    <glyph glyph-name="circumflex" unicode="&#x2c6;" 
d="M724 1215l-157 149l-139 -149h-267l355 315h107l368 -315h-267z" />
    <glyph glyph-name="caron" unicode="&#x2c7;" 
d="M991 1530l-368 -315h-107l-355 315h267l139 -149l157 149h267z" />
    <glyph glyph-name="macron" unicode="&#x2c9;" 
d="M971 1396v-181h-738v181h738z" />
    <glyph glyph-name="breve" unicode="&#x2d8;" 
d="M928 1540c0 -92.667 -32 -169.999 -96 -231.999s-146.667 -93 -248 -93c-97.333 0 -174.833 29.667 -232.5 89s-86.5 138 -86.5 236h141c0 -42.667 17.5 -76.834 52.5 -102.501s76.833 -38.5 125.5 -38.5c60 0 108.5 12.5 145.5 37.5s55.5 59.5 55.5 103.5h143z" />
    <glyph glyph-name="dotaccent" unicode="&#x2d9;" 
d="M580 1517c41.333 0 76.833 -14.833 106.5 -44.5s44.5 -65.167 44.5 -106.5s-14.833 -76.833 -44.5 -106.5s-65.167 -44.5 -106.5 -44.5c-42 0 -77.833 14.833 -107.5 44.5s-44.5 65.167 -44.5 106.5s14.833 76.833 44.5 106.5s65.5 44.5 107.5 44.5z" />
    <glyph glyph-name="ring" unicode="&#x2da;" 
d="M605 1216c-70 0 -129.501 19.333 -178.501 58s-73.5 89.667 -73.5 153c0 60.667 25.333 111 76 151s109.334 60 176.001 60c68.667 0 127.834 -19.667 177.501 -59s74.5 -90 74.5 -152s-24.833 -112.667 -74.5 -152s-108.834 -59 -177.501 -59zM603.999 1522
c-29.333 0 -54.333 -8.5 -75 -25.5s-31 -40.5 -31 -70.5c0 -64 35.333 -96 106 -96s106 32 106 96s-35.333 96 -106 96z" />
    <glyph glyph-name="ogonek" unicode="&#x2db;" 
d="M660 143l73.998 -142.998c-27.333 -8.66699 -51.166 -26.834 -71.499 -54.501s-30.5 -58.834 -30.5 -93.501c0 -29.333 12.667 -53.833 38 -73.5s54.333 -29.5 87 -29.5c34.667 0 66 13 94 39l65 -124c-52 -38.667 -119.333 -58 -202 -58
c-81.333 0 -145.666 19.833 -192.999 59.5s-71 91.167 -71 154.5c0 150 70 257.667 210 323z" />
    <glyph glyph-name="tilde" unicode="&#x2dc;" 
d="M386 1185h-144.999c12.667 76 38.167 137.833 76.5 185.5s85.833 71.5 142.5 71.5c52 0 104 -12.833 156 -38.5s85.333 -38.5 100 -38.5c40.667 0 69.667 25.667 87 77h148c-25.333 -99.333 -56.333 -167 -93 -203s-82.667 -54 -138 -54
c-41.333 0 -88.5 12.833 -141.5 38.5s-87.5 38.5 -103.5 38.5c-34.667 0 -64.334 -25.667 -89.001 -77z" />
    <glyph glyph-name="hungarumlaut" unicode="&#x2dd;" 
d="M617 1508l-226 -293h-190l169 293h247zM1037 1508l-226 -293h-190l169 293h247z" />
    <glyph glyph-name="questiongreek" unicode="&#x37e;" horiz-adv-x="752" 
d="M174 940c0 50 17.3311 92.498 51.998 127.498s77.334 52.5 128.001 52.5c51.333 0 94.333 -17.5 129 -52.5s52 -77.5 52 -127.5c0 -49.333 -17.833 -91.666 -53.5 -126.999s-78.167 -53 -127.5 -53s-91.666 17.833 -126.999 53.5s-53 77.834 -53 126.501z
M216.998 -375.002l-85.999 111c122.667 90 184 161.667 184 215c0 17.333 -6.66699 36.333 -20 57c-64 31.333 -96 74.333 -96 129c0 42 17.167 75.667 51.5 101s75.166 38 122.499 38c46.667 0 87 -17 121 -51s51 -75 51 -123c0 -80.667 -18.667 -156 -56 -226
s-128 -153.667 -272 -251z" />
    <glyph glyph-name="tonos" unicode="&#x384;" 
d="M784 1610l-176 -330h-192l108 330h260z" />
    <glyph glyph-name="dieresistonos" unicode="&#x385;" 
d="M690 1550l-31 -336h-122l-35 336h188zM926 1507c39.333 0 73.332 -13.668 101.999 -41.001s43 -60.666 43 -99.999c0 -38.667 -14.167 -72.167 -42.5 -100.5s-61.833 -42.5 -100.5 -42.5c-39.333 0 -73.166 14 -101.499 42s-42.5 61.667 -42.5 101
c0 40 13.667 73.5 41 100.5s61 40.5 101 40.5zM413.999 1366h2c0 -39.333 -13.833 -73 -41.5 -101s-61.167 -42 -100.5 -42s-73.333 14 -102 42s-43 61.667 -43 101c0 40 13.833 73.5 41.5 100.5s61.5 40.5 101.5 40.5s73.667 -13.5 101 -40.5s41 -60.5 41 -100.5z" />
    <glyph glyph-name="Alphatonos" unicode="&#x386;" horiz-adv-x="1317" 
d="M1026 0l-108 297h-502l-101 -297h-290l585 1485h113l590 -1485h-287zM666 1036l-177 -540h353zM385 1464l-160 -366h-188l100 366h248z" />
    <glyph glyph-name="anoteleia" unicode="&#x387;" horiz-adv-x="752" 
d="M174 741c0 50 17.832 92.667 53.499 128s77.834 53 126.501 53c49.333 0 91.833 -17.833 127.5 -53.5s53.5 -78.167 53.5 -127.5s-17.667 -92 -53 -128s-78 -54 -128 -54s-92.5 18.167 -127.5 54.5s-52.5 78.833 -52.5 127.5z" />
    <glyph glyph-name="Epsilontonos" unicode="&#x388;" horiz-adv-x="1411" 
d="M655 1235v-344h486v-221h-486v-439h664v-231h-924v1464h936v-229h-676zM244 1464l-160 -366h-188l100 366h248z" />
    <glyph glyph-name="Etatonos" unicode="&#x389;" horiz-adv-x="1647" 
d="M1239 0v659h-584v-659h-260v1464h260v-573h584v573h256v-1464h-256zM244 1464l-160 -366h-188l100 366h248z" />
    <glyph glyph-name="Iotatonos" unicode="&#x38a;" horiz-adv-x="809" 
d="M395 0v1464h260v-1464h-260zM244 1464l-160 -366h-188l100 366h248z" />
    <glyph glyph-name="Omicrontonos" unicode="&#x38c;" horiz-adv-x="1579" 
d="M219 745c0 148.667 28.6689 279.832 86.002 393.499s131.166 200.834 221.499 261.501s198.166 91 323.499 91c208.667 0 369 -64.833 481 -194.5s168 -313.5 168 -551.5c0 -238.667 -58.333 -426.667 -175 -564s-281.667 -206 -495 -206
c-198.667 0 -350 69.167 -454 207.5s-156 325.833 -156 562.5zM489.002 744.998c0 -178 29.5 -312.167 88.5 -402.5s142.833 -135.5 251.5 -135.5c130 0 229.167 45.333 297.5 136s102.5 224.667 102.5 402c0 343.333 -126.333 515 -379 515
c-116.667 0 -206 -46.333 -268 -139s-93 -218 -93 -376zM244.002 1464l-160 -366h-188l100 366h248z" />
    <glyph glyph-name="Upsilontonos" unicode="&#x38e;" horiz-adv-x="1587" 
d="M1092 600v-600h-261v600l-495 864h276l349 -624l348 624h274zM244 1464l-160 -366h-188l100 366h248z" />
    <glyph glyph-name="Omegatonos" unicode="&#x38f;" horiz-adv-x="1626" 
d="M969 0l0.000976562 80.001c92 116 163.5 231.167 214.5 345.5s76.5 237.5 76.5 369.5c0 150.667 -32.833 267.5 -98.5 350.5s-157.834 124.5 -276.501 124.5c-118 0 -209.667 -42.833 -275 -128.5s-98 -197.834 -98 -336.501c0 -124.667 25.167 -245.167 75.5 -361.5
s123.5 -237.5 219.5 -363.5v-80h-594v223c83.333 0 168.666 -7.33301 255.999 -22c-151.333 191.333 -227 391.333 -227 600c0 200 59.333 366.667 178 500s276.334 200 473.001 200c202.667 0 359.5 -62.833 470.5 -188.5s166.5 -296.167 166.5 -511.5
c0 -96 -19.833 -197 -59.5 -303s-96.5 -205 -170.5 -297c80.667 13.333 167 20 259 20v-221h-590zM244.001 1464l-160 -366h-188l100 366h248z" />
    <glyph glyph-name="iotadieresistonos" unicode="&#x390;" horiz-adv-x="594" 
d="M547 96c-42 -76 -112.332 -113.999 -210.999 -113.999c-121.333 0 -182 80.333 -182 241v848h252v-733c0 -70.667 10.667 -124.834 32 -162.501s57.666 -64.167 108.999 -79.5zM373.001 1550l-33 -336h-123l-33 336h189zM602.001 1507
c39.333 0 72.999 -13.668 100.999 -41.001s42 -60.666 42 -99.999c0 -38.667 -14.167 -72.167 -42.5 -100.5s-61.833 -42.5 -100.5 -42.5c-39.333 0 -72.666 14 -99.999 42s-41 61.667 -41 101c0 40 13.5 73.5 40.5 100.5s60.5 40.5 100.5 40.5zM-45 1507
c40 0 73.501 -13.5 100.501 -40.5s40.5 -60.5 40.5 -100.5c0 -39.333 -13.833 -73 -41.5 -101s-60.834 -42 -99.501 -42c-40 0 -73.833 13.833 -101.5 41.5s-41.5 61.5 -41.5 101.5s13.667 73.5 41 100.5s61.333 40.5 102 40.5z" />
    <glyph glyph-name="Alpha" unicode="&#x391;" horiz-adv-x="1296" 
d="M1006 0l-109 297h-502l-100 -297h-291l586 1485h112l590 -1485h-286zM645 1036l-176 -540h352z" />
    <glyph glyph-name="Beta" unicode="&#x392;" horiz-adv-x="1219" 
d="M598 0h-447.999v1464c230 10 368.333 15 415 15c151.333 0 270.166 -32.667 356.499 -98s129.5 -158.333 129.5 -279c0 -116 -61.667 -207.667 -185 -275c182 -62.667 273 -193.667 273 -393c0 -133.333 -50.333 -239 -151 -317s-230.667 -117 -390 -117zM410.001 1255
v-350c52 -2.66699 94.333 -4 127 -4c169.333 0 254 63.667 254 191c0 113.333 -77.333 170 -232 170c-40 0 -89.667 -2.33301 -149 -7zM410.001 702l0.00195312 -485c52.667 -4 95.667 -6 129 -6c108.667 0 190.667 18.5 246 55.5s83 103.833 83 200.5
c0 82 -23.833 142.167 -71.5 180.5s-132.834 57.5 -255.501 57.5c-46.667 0 -90.334 -1 -131.001 -3z" />
    <glyph glyph-name="Gamma" unicode="&#x393;" horiz-adv-x="1116" 
d="M1061 1235h-651v-1235h-260v1464h911v-229z" />
    <glyph glyph-name="glyph168" unicode="&#x394;" horiz-adv-x="1198" 
d="M-5 0v153l536 1312h185l489 -1312v-153h-1210zM616 1076l-330 -855h640z" />
    <glyph glyph-name="Epsilon" unicode="&#x395;" horiz-adv-x="1165" 
d="M410 1235v-344h485v-221h-485v-439h663v-231h-923v1464h935v-229h-675z" />
    <glyph glyph-name="Zeta" unicode="&#x396;" horiz-adv-x="1147" 
d="M80 0v84l610 1151h-600v229h954v-84l-612 -1149h635v-231h-987z" />
    <glyph glyph-name="Eta" unicode="&#x397;" horiz-adv-x="1401" 
d="M993 0v659h-583v-659h-260v1464h260v-573h583v573h256v-1464h-256z" />
    <glyph glyph-name="Theta" unicode="&#x398;" horiz-adv-x="1470" 
d="M80 745c0 203.333 58.499 378.5 175.499 525.5s280.167 220.5 489.5 220.5c206 0 365.167 -66.333 477.5 -199s168.5 -315 168.5 -547c0 -222 -57.667 -405.833 -173 -551.5s-279.666 -218.5 -492.999 -218.5c-214 0 -375 71.167 -483 213.5s-162 327.833 -162 556.5z
M341.999 745c0 -177.333 33.333 -312.333 100 -405s163 -139 289 -139c132 0 231.167 48.667 297.5 146s99.5 230 99.5 398c0 347.333 -129.667 521 -389 521c-130.667 0 -229.5 -49.667 -296.5 -149s-100.5 -223.333 -100.5 -372zM1012 637h-553v223h553v-223z" />
    <glyph glyph-name="Iota" unicode="&#x399;" horiz-adv-x="569" 
d="M156 0v1464h260v-1464h-260z" />
    <glyph glyph-name="Kappa" unicode="&#x39a;" horiz-adv-x="1264" 
d="M981 0l-408 625l-163 -224v-401h-260v1464h260v-700l497 700h297l-459 -639l547 -825h-311z" />
    <glyph glyph-name="Lambda" unicode="&#x39b;" horiz-adv-x="1288" 
d="M1280 0h-299l-342 989l-338 -989h-293l574 1485h120z" />
    <glyph glyph-name="Mu" unicode="&#x39c;" horiz-adv-x="1526" 
d="M1516 0h-252l-152 788l-295 -808h-92l-297 808l-158 -788h-250l295 1464h138l317 -987l309 987h138z" />
    <glyph glyph-name="Nu" unicode="&#x39d;" horiz-adv-x="1366" 
d="M1110 -20l-711 927v-907h-249v1464h124l693 -882v882h250v-1484h-107z" />
    <glyph glyph-name="Xi" unicode="&#x39e;" horiz-adv-x="1292" 
d="M1190 0h-1088v219h418v459h-305v207h305v362h-405v217h1063v-217h-406v-362h305v-207h-305v-459h418v-219z" />
    <glyph glyph-name="Omicron" unicode="&#x39f;" horiz-adv-x="1440" 
d="M80 745c0 208 57.167 384.333 171.5 529s267.5 217 459.5 217c208.667 0 369 -64.833 481 -194.5s168 -313.5 168 -551.5c0 -238.667 -58.333 -426.667 -175 -564s-281.667 -206 -495 -206c-198.667 0 -350 69.167 -454 207.5s-156 325.833 -156 562.5zM350 745
c0 -178 29.333 -312.167 88 -402.5s142.667 -135.5 252 -135.5c130 0 229.167 45.333 297.5 136s102.5 224.667 102.5 402c0 343.333 -126.333 515 -379 515c-117.333 0 -206.833 -46.333 -268.5 -139s-92.5 -218 -92.5 -376z" />
    <glyph glyph-name="Pi" unicode="&#x3a0;" horiz-adv-x="1360" 
d="M1210 0h-260v1235h-540v-1235h-260v1464h1060v-1464z" />
    <glyph glyph-name="Rho" unicode="&#x3a1;" horiz-adv-x="1202" 
d="M410 539v-539h-260v1464c191.333 7.33301 293 11 305 11c228 0 396.167 -35.333 504.5 -106s162.5 -181.667 162.5 -333c0 -336 -198 -504 -594 -504c-30 0 -69.333 2.33301 -118 7zM410 1239l-0.00195312 -469c44.667 -4 79.334 -6 104.001 -6
c118.667 0 205.334 19.5 260.001 58.5s82 103.5 82 193.5c0 151.333 -122.333 227 -367 227c-36.667 0 -63 -1.33301 -79 -4z" />
    <glyph glyph-name="Sigma" unicode="&#x3a3;" horiz-adv-x="1192" 
d="M1112 1235h-571l338 -430l-410 -574h637v-231h-1047v84l521 696l-482 602v82h1014v-229z" />
    <glyph glyph-name="Tau" unicode="&#x3a4;" horiz-adv-x="1253" 
d="M745 1235v-1235h-260v1235h-465v229h1213v-229h-488z" />
    <glyph glyph-name="Upsilon" unicode="&#x3a5;" horiz-adv-x="1255" 
d="M760 600v-600h-260v600l-496 864h277l348 -624l348 624h274z" />
    <glyph glyph-name="Phi" unicode="&#x3a6;" horiz-adv-x="1628" 
d="M944 1372c192 -11.333 341.333 -71.501 448 -180.501s160 -254.833 160 -437.5c0 -176.667 -54 -322.667 -162 -438s-256.667 -179.666 -446 -192.999v-152h-258v152c-192 11.333 -341.667 71.333 -449 180s-161 254 -161 436c0 176.667 54.333 323 163 439
s257.667 180.667 447 194v152h258v-152zM690 323.999l-0.000976562 850c-240 -31.333 -360 -174.333 -360 -429c0 -117.333 31.333 -213.333 94 -288s151.334 -119 266.001 -133zM939.999 321.999c238.667 30 358 172.667 358 428c0 118 -31 214.167 -93 288.5
s-150.333 118.5 -265 132.5v-849z" />
    <glyph glyph-name="Chi" unicode="&#x3a7;" horiz-adv-x="1231" 
d="M942 0l-346 526l-320 -526h-272l440 760l-403 706l264 -2l297 -493l328 493h272l-465 -708l488 -756h-283z" />
    <glyph glyph-name="Psi" unicode="&#x3a8;" horiz-adv-x="1667" 
d="M1544 913c0 -162.667 -51.1689 -296 -153.502 -400s-244.166 -166.333 -425.499 -187v-330h-258v328c-185.333 16.667 -329 75.5 -431 176.5s-153 233.167 -153 396.5v567h256v-546c0 -104.667 28.333 -190.667 85 -258s139 -107 247 -119v923h250v-925
c106.667 12.667 187.834 52.5 243.501 119.5s83.5 150.5 83.5 250.5v555h256v-551z" />
    <glyph glyph-name="Omega" unicode="&#x3a9;" horiz-adv-x="1370" 
d="M765 0v188.002c108.667 95.333 184.167 185.666 226.5 270.999s63.5 180.666 63.5 285.999c0 343.333 -128.333 515 -385 515c-114.667 0 -202.5 -46.167 -263.5 -138.5s-91.5 -217.833 -91.5 -376.5c0 -95.333 28.5 -199.833 85.5 -313.5s125.167 -194.5 204.5 -242.5
v-189h-560v202h218c-145.333 138.667 -218 319.667 -218 543c0 208.667 56.333 385.167 169 529.5s264.667 216.5 456 216.5c212 0 374.167 -65.667 486.5 -197s168.5 -314.333 168.5 -549c0 -225.333 -77.667 -406.333 -233 -543h233v-202h-560z" />
    <glyph glyph-name="Iotadieresis" unicode="&#x3aa;" horiz-adv-x="569" 
d="M156 0v1464h260v-1464h-260zM580 1870c38.667 0 72.167 -13.8311 100.5 -41.498s42.5 -60.834 42.5 -99.501c0 -39.333 -14.167 -73.166 -42.5 -101.499s-61.833 -42.5 -100.5 -42.5c-39.333 0 -72.833 14.167 -100.5 42.5s-41.5 62.166 -41.5 101.499
s13.667 72.666 41 99.999s61 41 101 41zM-6 1870c39.333 0 72.667 -13.6689 100 -41.002s41 -60.666 41 -99.999s-13.833 -73.166 -41.5 -101.499s-60.834 -42.5 -99.501 -42.5c-40 0 -74 14 -102 42s-42 62 -42 102s13.833 73.5 41.5 100.5s61.834 40.5 102.501 40.5z" />
    <glyph glyph-name="Upsilondieresis" unicode="&#x3ab;" horiz-adv-x="1255" 
d="M760 600v-600h-260v600l-496 864h277l348 -624l348 624h274zM946 1870c39.333 0 73.167 -13.8311 101.5 -41.498s42.5 -60.834 42.5 -99.501c0 -39.333 -14.333 -73.166 -43 -101.499s-62.334 -42.5 -101.001 -42.5c-39.333 0 -72.666 14.167 -99.999 42.5
s-41 62.166 -41 101.499s13.5 72.666 40.5 99.999s60.5 41 100.5 41zM328.001 1870c39.333 0 72.667 -13.6689 100 -41.002s41 -60.666 41 -99.999s-13.833 -73.166 -41.5 -101.499s-60.834 -42.5 -99.501 -42.5c-40 0 -74 14 -102 42s-42 62 -42 102
s13.833 73.5 41.5 100.5s61.834 40.5 102.501 40.5z" />
    <glyph glyph-name="alphatonos" unicode="&#x3ac;" horiz-adv-x="1217" 
d="M1153 59c-24 -52.667 -76.665 -78.999 -157.998 -78.999c-64 0 -118.667 38.667 -164 116c-68.667 -77.333 -169 -116 -301 -116c-139.333 0 -250.5 48.5 -333.5 145.5s-124.5 231.833 -124.5 404.5c0 160.667 46.333 294.5 139 401.5s217 160.5 373 160.5
c117.333 0 206.666 -35 267.999 -105c42 70 91.667 105 149 105c73.333 0 122.666 -25.333 147.999 -76c-71.333 -32.667 -107 -117.334 -107 -254.001v-434c0 -145.333 37 -235 111 -269zM797.002 287.001l0.000976562 531.999c-54.667 44 -116.334 66 -185.001 66
c-86 0 -155.167 -33.333 -207.5 -100s-78.5 -151.667 -78.5 -255c0 -73.333 12.667 -137.666 38 -192.999s57.333 -94.333 96 -117s82 -34 130 -34c74 0 143 33.667 207 101zM874.003 1610l-176 -330h-190l108 330h258z" />
    <glyph glyph-name="epsilontonos" unicode="&#x3ad;" horiz-adv-x="1040" 
d="M985 94c-133.333 -78 -286.332 -116.999 -458.999 -116.999c-122.667 0 -222.834 27.167 -300.501 81.5s-116.5 129.833 -116.5 226.5c0 53.333 17.333 103.666 52 150.999s84 84.333 148 111c-56.667 14.667 -100.834 43.167 -132.501 85.5s-47.5 91.5 -47.5 147.5
c0 75.333 36.333 146.5 109 213.5s178.334 100.5 317.001 100.5c124 0 251.667 -24.667 383 -74l-70 -201c-106 48 -213 72 -321 72c-47.333 0 -85.833 -10.833 -115.5 -32.5s-44.5 -50.5 -44.5 -86.5c0 -38 16.5 -69 49.5 -93s83.5 -36 151.5 -36c58 0 115.333 2 172 6
v-192c-68 4 -129.667 6 -185 6c-64 0 -114.333 -14.333 -151 -43s-55 -65.667 -55 -111c0 -41.333 17 -73.5 51 -96.5s83 -34.5 147 -34.5c120 0 226.667 35.667 320 107zM836.001 1610l-177 -330h-190l109 330h258z" />
    <glyph glyph-name="etatonos" unicode="&#x3ae;" horiz-adv-x="1210" 
d="M821 -336v953.999c0 95.333 -17.833 163.333 -53.5 204s-90.167 61 -163.5 61c-32 0 -68.333 -9.66699 -109 -29s-74.667 -48 -102 -86v-768h-250v1071h181l47 -106c72 84.667 170.333 127 295 127c122 0 220 -38.167 294 -114.5s111 -183.166 111 -320.499v-933z
M918 1610l-177 -330h-190l108 330h259z" />
    <glyph glyph-name="iotatonos" unicode="&#x3af;" horiz-adv-x="594" 
d="M547 96c-42 -76 -112.332 -113.999 -210.999 -113.999c-121.333 0 -182 80.333 -182 241v848h252v-733c0 -70.667 10.667 -124.834 32 -162.501s57.666 -64.167 108.999 -79.5zM520.001 1610l-176 -330h-190l108 330h258z" />
    <glyph glyph-name="upsilondieresistonos" unicode="&#x3b0;" horiz-adv-x="1184" 
d="M1049 477c0 -160.667 -39 -283.333 -117 -368s-192 -127 -342 -127c-303.333 0 -455 163.667 -455 491v598h250v-616c0 -176.667 69.667 -265 209 -265c72 0 124.167 20.5 156.5 61.5s48.5 106.833 48.5 197.5v622h250v-594zM678 1550l-33 -336h-123l-33 336h189z
M913 1507c39.333 0 73.1699 -13.668 101.503 -41.001s42.5 -60.666 42.5 -99.999c0 -38.667 -14.333 -72.167 -43 -100.5s-62.334 -42.5 -101.001 -42.5s-71.834 14 -99.501 42s-41.5 61.667 -41.5 101c0 40 13.667 73.5 41 100.5s60.666 40.5 99.999 40.5zM260.004 1507
c40 0 73.501 -13.5 100.501 -40.5s40.5 -60.5 40.5 -100.5c0 -39.333 -13.833 -73 -41.5 -101s-60.834 -42 -99.501 -42c-40 0 -73.833 13.833 -101.5 41.5s-41.5 61.5 -41.5 101.5s13.833 73.5 41.5 100.5s61.5 40.5 101.5 40.5z" />
    <glyph glyph-name="alpha" unicode="&#x3b1;" horiz-adv-x="1217" 
d="M1153 59c-24 -52.667 -76.665 -78.999 -157.998 -78.999c-64 0 -118.667 38.667 -164 116c-68.667 -77.333 -169 -116 -301 -116c-139.333 0 -250.5 48.5 -333.5 145.5s-124.5 231.833 -124.5 404.5c0 160.667 46.333 294.5 139 401.5s217 160.5 373 160.5
c117.333 0 206.666 -35 267.999 -105c42 70 91.667 105 149 105c73.333 0 122.666 -25.333 147.999 -76c-71.333 -32.667 -107 -117.334 -107 -254.001v-434c0 -145.333 37 -235 111 -269zM797.002 287.001l0.000976562 531.999c-54.667 44 -116.334 66 -185.001 66
c-86 0 -155.167 -33.333 -207.5 -100s-78.5 -151.667 -78.5 -255c0 -73.333 12.667 -137.666 38 -192.999s57.333 -94.333 96 -117s82 -34 130 -34c74 0 143 33.667 207 101z" />
    <glyph glyph-name="beta" unicode="&#x3b2;" 
d="M797 836c106.667 -28 188.501 -76.835 245.501 -146.502s85.5 -152.167 85.5 -247.5c0 -129.333 -47.5 -238.666 -142.5 -327.999s-211.833 -134 -350.5 -134c-127.333 0 -226.333 27.667 -297 83l-55 -83h-142v1030c0 153.333 41.167 276.333 123.5 369
s194.166 139 335.499 139c123.333 0 224.833 -33.167 304.5 -99.5s119.5 -152.166 119.5 -257.499c0 -75.333 -20 -141.833 -60 -199.5s-95.667 -99.5 -167 -125.5zM387.001 919.998h148c76 0 136.167 20 180.5 60s66.5 94.333 66.5 163c0 50.667 -16.667 92.667 -50 126
s-79.333 50 -138 50c-138 0 -207 -97 -207 -291v-108zM387.001 269.998c37.333 -60 107 -90 209 -90c88 0 156.333 22 205 66s73 104.667 73 182c0 92.667 -31.333 166 -94 220s-150 81 -262 81h-131v-459z" />
    <glyph glyph-name="gamma" unicode="&#x3b3;" horiz-adv-x="1161" 
d="M1151 1071l-431.997 -1048v-443h-254v432c-62.667 206 -123 382.5 -181 529.5s-101.667 238.5 -131 274.5s-63.333 54 -102 54h-12v209h20c74.667 0 137.167 -9.83301 187.5 -29.5s92.166 -53.667 125.499 -102s72.166 -132.333 116.499 -252
s84.166 -247.167 119.499 -382.5l279 758h264z" />
    <glyph glyph-name="delta" unicode="&#x3b4;" horiz-adv-x="1171" 
d="M666 1311c25.333 -14.667 88.999 -85.001 190.999 -211.001s168 -229.833 198 -311.5s45 -164.167 45 -247.5c0 -167.333 -45.667 -302.666 -137 -405.999s-217.666 -155 -378.999 -155c-162.667 0 -288.667 50.333 -378 151s-134 236.667 -134 408
c0 100.667 19.833 192.5 59.5 275.5s95 147.833 166 194.5s147.167 70 228.5 70c25.333 0 52 -3.33301 80 -10l-293 361v79h736v-200c-234.667 0 -361.667 2.66699 -381 8zM585.999 183.999c82 0 144.833 32.666 188.5 97.999s65.5 151.666 65.5 258.999
c0 74.667 -8.83301 138.834 -26.5 192.501s-46.5 102.834 -86.5 147.501c-15.333 16 -56.333 24 -123 24c-87.333 0 -154.5 -33.667 -201.5 -101s-70.5 -155 -70.5 -263c0 -238 84.667 -357 254 -357z" />
    <glyph glyph-name="epsilon" unicode="&#x3b5;" horiz-adv-x="1040" 
d="M985 94c-133.333 -78 -286.332 -116.999 -458.999 -116.999c-122.667 0 -222.834 27.167 -300.501 81.5s-116.5 129.833 -116.5 226.5c0 53.333 17.333 103.666 52 150.999s84 84.333 148 111c-56.667 14.667 -100.834 43.167 -132.501 85.5s-47.5 91.5 -47.5 147.5
c0 75.333 36.333 146.5 109 213.5s178.334 100.5 317.001 100.5c124 0 251.667 -24.667 383 -74l-70 -201c-106 48 -213 72 -321 72c-47.333 0 -85.833 -10.833 -115.5 -32.5s-44.5 -50.5 -44.5 -86.5c0 -38 16.5 -69 49.5 -93s83.5 -36 151.5 -36c58 0 115.333 2 172 6
v-192c-68 4 -129.667 6 -185 6c-64 0 -114.333 -14.333 -151 -43s-55 -65.667 -55 -111c0 -41.333 17 -73.5 51 -96.5s83 -34.5 147 -34.5c120 0 226.667 35.667 320 107z" />
    <glyph glyph-name="zeta" unicode="&#x3b6;" horiz-adv-x="954" 
d="M967 1430c-187.333 -204 -338.668 -390.335 -454.001 -559.002s-173 -323.667 -173 -465c0 -63.333 17.5 -112.333 52.5 -147s115.167 -58 240.5 -70c122.667 -11.333 209 -44.166 259 -98.499s75 -119.166 75 -194.499c0 -91.333 -34.5 -166.833 -103.5 -226.5
s-155.5 -89.5 -259.5 -89.5c-54.667 0 -103.667 4.66699 -147 14l28 183c33.333 -10 70.333 -15 111 -15c38.667 0 69.834 9.83301 93.501 29.5s35.5 45.5 35.5 77.5c0 44.667 -15.833 75.667 -47.5 93s-99.167 28.666 -202.5 33.999
c-129.333 5.33301 -228.833 40.333 -298.5 105s-104.5 155.334 -104.5 272.001c0 299.333 179.333 612 538 938l-2 6c-19.333 -5.33301 -146.333 -8 -381 -8v200h740v-79z" />
    <glyph glyph-name="eta" unicode="&#x3b7;" horiz-adv-x="1210" 
d="M821 -336v953.999c0 94 -17.5 161.667 -52.5 203s-89.833 62 -164.5 62c-32 0 -68.333 -9.66699 -109 -29s-74.667 -48 -102 -86v-768h-250v1071h181l47 -106c72 84.667 170.333 127 295 127c122 0 220 -38.167 294 -114.5s111 -183.166 111 -320.499v-933z" />
    <glyph glyph-name="theta" unicode="&#x3b8;" horiz-adv-x="1182" 
d="M92 735c0 255.333 43.1689 449.333 129.502 582s211.166 199 374.499 199c155.333 0 276.5 -65.5 363.5 -196.5s130.5 -318.833 130.5 -563.5c0 -255.333 -42.833 -448.5 -128.5 -579.5s-210.834 -196.5 -375.501 -196.5c-157.333 0 -279 64.667 -365 194
s-129 316.333 -129 561zM346.002 872h489.999c-17.333 294 -100.666 441 -249.999 441c-143.333 0 -223.333 -147 -240 -441zM342.001 674c11.333 -328 96.001 -492 254.001 -492c153.333 0 234.666 164 243.999 492h-498z" />
    <glyph glyph-name="iota" unicode="&#x3b9;" horiz-adv-x="594" 
d="M547 96c-42 -76 -112.332 -113.999 -210.999 -113.999c-121.333 0 -182 80.333 -182 241v848h252v-733c0 -70.667 10.667 -124.834 32 -162.501s57.666 -64.167 108.999 -79.5z" />
    <glyph glyph-name="kappa" unicode="&#x3ba;" horiz-adv-x="1176" 
d="M844 0l-301 453l-150 -164v-289h-250v1071h250v-481l406 481h301l-398 -442l455 -629h-313z" />
    <glyph glyph-name="lambda" unicode="&#x3bb;" horiz-adv-x="1145" 
d="M1124 0h-276l-240 793l-305 -793h-278l471 1098c-15.333 53.333 -31 96 -47 128c-26 52 -68.333 78 -127 78c-41.333 0 -86 -11.667 -134 -35l-67 209c81.333 26 158.333 39 231 39c126 0 221 -47.333 285 -142c35.333 -52 66 -117 92 -195z" />
    <glyph glyph-name="mu" unicode="&#x3bc;" horiz-adv-x="1120" 
d="M340 -420h-250v1491h250v-676c0 -137.333 61.667 -206 185 -206c56.667 0 109.334 14.667 158.001 44s81 63.333 97 102v736h250v-1072h-250v90c-86 -72.667 -185 -109 -297 -109c-56.667 0 -104.334 14.333 -143.001 43v-443z" />
    <glyph glyph-name="nu" unicode="&#x3bd;" horiz-adv-x="1092" 
d="M582 -20h-90l-482 1091h281l258 -672l266 672h266z" />
    <glyph glyph-name="xi" unicode="&#x3be;" horiz-adv-x="987" 
d="M862 719l-192.001 0.00390625c-81.333 0 -157 -27.833 -227 -83.5s-105 -127.5 -105 -215.5c0 -58.667 17.333 -108.334 52 -149.001s111.667 -67.667 231 -81c78.667 -8 136.834 -18.667 174.501 -32s70.834 -33 99.501 -59s50.167 -56.167 64.5 -90.5
s21.5 -71.833 21.5 -112.5c0 -90.667 -34.5 -166 -103.5 -226s-155.5 -90 -259.5 -90c-54.667 0 -103.667 4.66699 -147 14l29 183c33.333 -10 70 -15 110 -15c38 0 69 10 93 30s36 45.667 36 77c0 40.667 -14.667 70.5 -44 89.5s-102.666 31.5 -219.999 37.5
c-122 5.33301 -219.667 43 -293 113s-110 163.333 -110 280c0 92.667 29 176.167 87 250.5s138 132.166 240 173.499c-82.667 15.333 -148.334 51.833 -197.001 109.5s-73 126.167 -73 205.5c0 115.333 43.5 209.166 130.5 281.499s200.5 108.5 340.5 108.5
c109.333 0 222.666 -21.333 339.999 -64l-70 -203c-92.667 42.667 -186.667 64 -282 64c-60.667 0 -109 -17 -145 -51s-54 -78.667 -54 -134c0 -44 11.5 -81 34.5 -111s57.167 -52.833 102.5 -68.5s102.333 -23.834 171 -24.501l165 -2v-205z" />
    <glyph glyph-name="omicron" unicode="&#x3bf;" horiz-adv-x="1171" 
d="M72 539c0 113.333 23 212.5 69 297.5s107.167 148.833 183.5 191.5s163.5 64 261.5 64c162.667 0 289 -50 379 -150s135 -234.333 135 -403c0 -175.333 -46.833 -312.333 -140.5 -411s-218.167 -148 -373.5 -148c-161.333 0 -287.333 50.5 -378 151.5
s-136 236.833 -136 407.5zM332 539c0 -236.667 84.667 -354.999 254 -354.999c76.667 0 138.167 30.167 184.5 90.5s69.5 148.5 69.5 264.5c0 232 -84.667 348 -254 348c-77.333 0 -139 -30.333 -185 -91s-69 -146.334 -69 -257.001z" />
    <glyph glyph-name="pi" unicode="&#x3c0;" horiz-adv-x="1232" 
d="M1025 863v-863h-253v863h-277v-863h-253v863h-167v208h1108v-208h-158z" />
    <glyph glyph-name="rho" unicode="&#x3c1;" horiz-adv-x="1210" 
d="M129 -420l0.00195312 908.999c0 180.667 44.167 326.334 132.5 437.001s212.166 166 371.499 166c155.333 0 278.5 -50.833 369.5 -152.5s136.5 -233.167 136.5 -394.5c0 -164 -46.833 -299.167 -140.5 -405.5s-221.834 -159.5 -384.501 -159.5
c-84.667 0 -163 18.333 -235 55v-455h-250zM381.002 253.999c27.333 -20 61.832 -36 103.499 -48s78.834 -18 111.501 -18c92 0 162.167 30 210.5 90s72.5 147.667 72.5 263c0 112 -24 197.667 -72 257s-108.667 89 -182 89c-72.667 0 -131.5 -30.333 -176.5 -91
s-67.5 -148.667 -67.5 -264v-278z" />
    <glyph glyph-name="sigma1" unicode="&#x3c2;" horiz-adv-x="981" 
d="M842 803c-65.333 53.333 -144.667 80 -238 80c-79.333 0 -144.5 -32.5 -195.5 -97.5s-76.5 -149.5 -76.5 -253.5c0 -82 24 -149.667 72 -203s115.333 -89.333 202 -108c137.333 -29.333 233.166 -68.833 287.499 -118.5s81.5 -118.5 81.5 -206.5
c0 -91.333 -34 -166.833 -102 -226.5s-154.333 -89.5 -259 -89.5c-54.667 0 -103.667 4.66699 -147 14l29 183c30.667 -10 66.667 -15 108 -15c40.667 0 72.667 9.16699 96 27.5s35 43.5 35 75.5c0 76 -49 122.333 -147 139c-124.667 18.667 -220.667 46.5 -288 83.5
s-122.166 93 -164.499 168s-63.5 160.5 -63.5 256.5c0 164.667 46.833 302.5 140.5 413.5s232.5 166.5 416.5 166.5c122.667 0 229 -34.333 319 -103z" />
    <glyph glyph-name="sigma" unicode="&#x3c3;" horiz-adv-x="1223" 
d="M1169 862l-268 3.99902c134 -119.333 201 -247 201 -383c0 -93.333 -21 -179 -63 -257s-101.833 -138.5 -179.5 -181.5s-168.167 -64.5 -271.5 -64.5c-160 0 -286 48.5 -378 145.5s-138 225.167 -138 384.5c0 168.667 51.5 304.334 154.5 407.001s239.167 154 408.5 154
h534v-209zM842 486.999c0 68.667 -19 137.333 -57 206s-89.333 126.334 -154 173.001c-96.667 0 -170.667 -30 -222 -90s-77 -144 -77 -252c0 -102 23.333 -184.167 70 -246.5s112 -93.5 196 -93.5c78.667 0 139 28.167 181 84.5s63 129.166 63 218.499z" />
    <glyph glyph-name="tau" unicode="&#x3c4;" horiz-adv-x="965" 
d="M918 860h-360.999v-534c0 -90.667 33.333 -136 100 -136c35.333 0 73.666 8.33301 114.999 25v-215c-60.667 -12 -116.667 -18 -168 -18c-95.333 0 -169 27.5 -221 82.5s-78 133.167 -78 234.5v561h-266v211h879v-211z" />
    <glyph glyph-name="upsilon" unicode="&#x3c5;" horiz-adv-x="1184" 
d="M1049 477c0 -160.667 -39 -283.333 -117 -368s-192 -127 -342 -127c-303.333 0 -455 163.667 -455 491v598h250v-616c0 -176.667 69.667 -265 209 -265c72 0 124.167 20.5 156.5 61.5s48.5 106.833 48.5 197.5v622h250v-594z" />
    <glyph glyph-name="phi" unicode="&#x3c6;" horiz-adv-x="1540" 
d="M649 178l-0.000976562 477.002c0 159.333 32.333 272.333 97 339s145.667 100 243 100c141.333 0 256.5 -52.833 345.5 -158.5s133.5 -234.5 133.5 -386.5c0 -158.667 -50.5 -289.5 -151.5 -392.5s-243.5 -161.167 -427.5 -174.5v-402h-242v402
c-186 9.33301 -328.333 63.166 -427 161.499s-148 227.166 -148 386.499c0 119.333 28.667 228.333 86 327s140 178.334 248 239.001l118 -156c-136.667 -98 -205 -228.333 -205 -391c0 -105.333 29.333 -191.333 88 -258s139.334 -104.334 242.001 -113.001z
M886.999 176.002c103.333 8 184.834 43.5 244.501 106.5s89.5 144.167 89.5 243.5c0 109.333 -21.833 198.833 -65.5 268.5s-95.167 104.5 -154.5 104.5c-32.667 0 -59.834 -11.333 -81.501 -34s-32.5 -72 -32.5 -148v-541z" />
    <glyph glyph-name="chi" unicode="&#x3c7;" horiz-adv-x="1141" 
d="M817 0l-252 369l-258 -369h-291l422 545l-393 526h289l237 -340l238 340h281l-392 -514l424 -557h-305z" />
    <glyph glyph-name="psi" unicode="&#x3c8;" horiz-adv-x="1583" 
d="M1452 563c0 -357.333 -179 -551 -537 -581v-402h-241v402c-362 25.333 -543 216.333 -543 573v516h244v-526c0 -106.667 25.333 -191.667 76 -255s125.667 -100 225 -110v891h237v-893c199.333 22.667 299 143 299 361v532h240v-508z" />
    <glyph glyph-name="omega" unicode="&#x3c9;" horiz-adv-x="1604" 
d="M1202 1100c106 -71.333 186.5 -159.835 241.5 -265.502s82.5 -222.167 82.5 -349.5c0 -157.333 -37.167 -280.833 -111.5 -370.5s-179.166 -134.5 -314.499 -134.5c-132.667 0 -232.334 49.667 -299.001 149c-72 -99.333 -173 -149 -303 -149
c-133.333 0 -236.666 43.833 -309.999 131.5s-110 208.834 -110 363.501c0 252 107.667 460.333 323 625l154 -168c-148.667 -115.333 -223 -262 -223 -440c0 -98 16.333 -173.5 49 -226.5s77.667 -79.5 135 -79.5c47.333 0 87.166 18.333 119.499 55s48.5 60.667 48.5 72
v193c0 106.667 -2.66699 196 -8 268h252c-4 -89.333 -6 -176.666 -6 -261.999v-186c39.333 -93.333 100 -140 182 -140c112 0 168 99.667 168 299c0 180 -74.333 329 -223 447z" />
    <glyph glyph-name="iotadieresis" unicode="&#x3ca;" horiz-adv-x="594" 
d="M547 96c-42 -76 -112.332 -113.999 -210.999 -113.999c-121.333 0 -182 80.333 -182 241v848h252v-733c0 -70.667 10.667 -124.834 32 -162.501s57.666 -64.167 108.999 -79.5zM547.001 1507c39.333 0 72.999 -13.668 100.999 -41.001s42 -60.666 42 -99.999
c0 -38.667 -14.167 -72.167 -42.5 -100.5s-61.833 -42.5 -100.5 -42.5c-39.333 0 -72.666 14 -99.999 42s-41 61.667 -41 101c0 40 13.5 73.5 40.5 100.5s60.5 40.5 100.5 40.5zM8 1507c40 0 73.667 -13.5 101 -40.5s41 -60.5 41 -100.5c0 -39.333 -14 -73 -42 -101
s-61.333 -42 -100 -42c-39.333 0 -73 13.833 -101 41.5s-42 61.5 -42 101.5s13.833 73.5 41.5 100.5s61.5 40.5 101.5 40.5z" />
    <glyph glyph-name="upsilondieresis" unicode="&#x3cb;" horiz-adv-x="1184" 
d="M1049 477c0 -160.667 -39 -283.333 -117 -368s-192 -127 -342 -127c-303.333 0 -455 163.667 -455 491v598h250v-616c0 -176.667 69.667 -265 209 -265c72 0 124.167 20.5 156.5 61.5s48.5 106.833 48.5 197.5v622h250v-594zM868 1507
c39.333 0 73.167 -13.668 101.5 -41.001s42.5 -60.666 42.5 -99.999c0 -38.667 -14.167 -72.167 -42.5 -100.5s-62.166 -42.5 -101.499 -42.5c-38.667 0 -71.834 14 -99.501 42s-41.5 61.667 -41.5 101c0 40 13.5 73.5 40.5 100.5s60.5 40.5 100.5 40.5zM324.001 1507
c39.333 0 72.666 -13.501 99.999 -40.501s41 -60.5 41 -100.5c0 -38.667 -14 -72.167 -42 -100.5s-61 -42.5 -99 -42.5c-40 0 -74 13.833 -102 41.5s-42 61.5 -42 101.5c0 40.667 13.833 74.334 41.5 101.001s61.834 40 102.501 40z" />
    <glyph glyph-name="omicrontonos" unicode="&#x3cc;" horiz-adv-x="1171" 
d="M72 539c0 113.333 23 212.5 69 297.5s107.167 148.833 183.5 191.5s163.5 64 261.5 64c162.667 0 289 -50 379 -150s135 -234.333 135 -403c0 -175.333 -46.833 -312.333 -140.5 -411s-218.167 -148 -373.5 -148c-161.333 0 -287.333 50.5 -378 151.5
s-136 236.833 -136 407.5zM332 539c0 -236.667 84.667 -354.999 254 -354.999c76.667 0 138.167 30.167 184.5 90.5s69.5 148.5 69.5 264.5c0 232 -84.667 348 -254 348c-77.333 0 -139 -30.333 -185 -91s-69 -146.334 -69 -257.001zM850 1610l-176 -330h-191l109 330h258z
" />
    <glyph glyph-name="upsilontonos" unicode="&#x3cd;" horiz-adv-x="1184" 
d="M1049 477c0 -160.667 -39 -283.333 -117 -368s-192 -127 -342 -127c-303.333 0 -455 163.667 -455 491v598h250v-616c0 -176.667 69.667 -265 209 -265c72 0 124.167 20.5 156.5 61.5s48.5 106.833 48.5 197.5v622h250v-594zM860 1610l-176 -330h-190l108 330h258z" />
    <glyph glyph-name="omegatonos" unicode="&#x3ce;" horiz-adv-x="1604" 
d="M1202 1100c106 -71.333 186.502 -159.835 241.502 -265.502s82.5 -222.167 82.5 -349.5c0 -156.667 -37.333 -280 -112 -370s-179.334 -135 -314.001 -135c-132.667 0 -232.334 49.667 -299.001 149c-72 -99.333 -173 -149 -303 -149
c-133.333 0 -236.666 43.833 -309.999 131.5s-110 208.834 -110 363.501c0 252 107.667 460.333 323 625l154 -168c-148.667 -115.333 -223 -262 -223 -440c0 -98 16.333 -173.5 49 -226.5s77.667 -79.5 135 -79.5c47.333 0 87.166 18.333 119.499 55s48.5 60.667 48.5 72
v193c0 106.667 -2.66699 196 -8 268h252c-4 -89.333 -6 -176.666 -6 -261.999v-186c39.333 -93.333 100 -140 182 -140c112 0 168 99.667 168 299c0 180 -74.333 329 -223 447zM1079 1610l-176 -330h-190l108 330h258z" />
    <glyph glyph-name="afii10023" unicode="&#x401;" horiz-adv-x="1180" 
d="M410 1235v-344h485v-221h-485v-439h663v-231h-923v1464h935v-229h-675zM858 1866c37.333 0 69.166 -13.5 95.499 -40.5s39.5 -59.167 39.5 -96.5c0 -38.667 -13.167 -71.667 -39.5 -99s-58.166 -41 -95.499 -41s-69.5 13.833 -96.5 41.5s-40.5 60.5 -40.5 98.5
c0 38.667 13.167 71.167 39.5 97.5s58.833 39.5 97.5 39.5zM408 1866c37.333 0 69.5 -13.5 96.5 -40.5s40.5 -59.167 40.5 -96.5c0 -38 -13.5 -70.833 -40.5 -98.5s-59.167 -41.5 -96.5 -41.5s-69.333 13.667 -96 41s-40 60.333 -40 99s13 71.167 39 97.5
s58.333 39.5 97 39.5z" />
    <glyph glyph-name="afii10051" unicode="&#x402;" horiz-adv-x="1546" 
d="M1460 416c0 -134.667 -40.5 -239.333 -121.5 -314s-180.5 -112 -298.5 -112c-28.667 0 -68 2.66699 -118 8v215c34 -5.33301 63.333 -8 88 -8c124 0 186 65.333 186 196v31c0 84 -25 148.667 -75 194s-119.333 68 -208 68c-54.667 0 -122.667 -7.33301 -204 -22v-672
h-260v1239h-400v225h1118v-225h-458v-358c84.667 14.667 163.667 22 237 22c160 0 285.667 -39.167 377 -117.5s137 -188.5 137 -330.5v-39z" />
    <glyph glyph-name="afii10052" unicode="&#x403;" horiz-adv-x="1126" 
d="M1061 1235h-649v-1235h-262v1464h911v-229zM928 1919l-223 -330h-199l168 330h254z" />
    <glyph glyph-name="afii10053" unicode="&#x404;" horiz-adv-x="1253" 
d="M1210 131c-131.333 -104 -293.667 -156 -487 -156c-202 0 -359.667 68.167 -473 204.5s-170 318.833 -170 547.5c0 221.333 61.667 404 185 548s290.333 216 501 216c135.333 0 268.333 -32 399 -96l-116 -226c-86.667 64.667 -183.667 97 -291 97
c-108.667 0 -198.667 -34 -270 -102s-116 -165.333 -134 -292h537v-215h-553c6 -138 45.333 -248.167 118 -330.5s167 -123.5 283 -123.5c132.667 0 246 45 340 135z" />
    <glyph glyph-name="afii10054" unicode="&#x405;" horiz-adv-x="1051" 
d="M84 82l96.001 230.998c101.333 -70.667 202.333 -106 303 -106c153.333 0 230 53.333 230 160c0 44.667 -16.5 89.834 -49.5 135.501s-108.833 98.834 -227.5 159.501c-112 56.667 -187.333 102.5 -226 137.5s-68.667 77.333 -90 127s-32 106.167 -32 169.5
c0 114 41.333 208.333 124 283s188.667 112 318 112c170 0 294.333 -32 373 -96l-78 -224c-92 66 -188 99 -288 99c-60.667 0 -107.667 -16.667 -141 -50s-50 -74 -50 -122c0 -82.667 93.667 -170 281 -262c134 -64.667 224.833 -131.834 272.5 -201.501
s71.5 -153.5 71.5 -251.5c0 -119.333 -46.833 -217.166 -140.5 -293.499s-218.834 -114.5 -375.501 -114.5c-138 0 -261.667 35.667 -371 107z" />
    <glyph glyph-name="afii10055" unicode="&#x406;" horiz-adv-x="569" 
d="M156 0v1464h260v-1464h-260z" />
    <glyph glyph-name="afii10056" unicode="&#x407;" horiz-adv-x="569" 
d="M156 0v1464h260v-1464h-260zM518 1866c37.333 0 69.167 -13.5 95.5 -40.5s39.5 -59.167 39.5 -96.5c0 -38.667 -13 -71.667 -39 -99s-58 -41 -96 -41c-37.333 0 -69.5 13.833 -96.5 41.5s-40.5 60.5 -40.5 98.5c0 38.667 13.167 71.167 39.5 97.5s58.833 39.5 97.5 39.5z
M68.001 1866c37.333 0 69.5 -13.5 96.5 -40.5s40.5 -59.167 40.5 -96.5c0 -38.667 -13.5 -71.667 -40.5 -99s-59.167 -41 -96.5 -41s-69.333 13.667 -96 41s-40 60.333 -40 99s12.833 71.167 38.5 97.5s58.167 39.5 97.5 39.5z" />
    <glyph glyph-name="afii10057" unicode="&#x408;" horiz-adv-x="1118" 
d="M43 340h233.003c20.667 -86 91.667 -129 213 -129c86 0 146.5 28.333 181.5 85s52.5 140.334 52.5 251.001v917h260v-909c0 -200.667 -42.833 -346.667 -128.5 -438s-216.834 -137 -393.501 -137c-118.667 0 -215.834 31.167 -291.501 93.5
s-117.834 151.166 -126.501 266.499z" />
    <glyph glyph-name="afii10058" unicode="&#x409;" horiz-adv-x="2060" 
d="M1270 915c69.333 7.33301 127.335 10.999 174.002 10.999c169.333 0 300.666 -40.333 393.999 -121s140 -196 140 -346c0 -139.333 -47.333 -250.666 -142 -333.999s-226.667 -125 -396 -125h-422v1243h-285c-24.667 -248 -63.834 -472 -117.501 -672
s-122.667 -347.5 -207 -442.5s-209.5 -142.5 -375.5 -142.5v239c46.667 0 86.167 6.16699 118.5 18.5s65.833 40.5 100.5 84.5s71.5 125.333 110.5 244s73 258.5 102 419.5s51.5 318.5 67.5 472.5h738v-549zM1270 214.999c70 -4 113.668 -5.99902 131.001 -5.99902
c120.667 0 204 23.667 250 71s69 111.666 69 192.999c0 76 -24.833 136 -74.5 180s-127.834 66 -234.501 66c-32 0 -79 -3.33301 -141 -10v-494z" />
    <glyph glyph-name="afii10059" unicode="&#x40a;" horiz-adv-x="1944" 
d="M1153 915c70 7.33301 128 10.999 174 10.999c169.333 0 300.833 -40.333 394.5 -121s140.5 -196 140.5 -346c0 -135.333 -46.167 -245.666 -138.5 -330.999s-225.833 -128 -400.5 -128h-422v659h-500v-659h-251v1464h251v-573h500v573h252v-549zM1153 214.999
c70 -4 113.667 -5.99902 131 -5.99902c121.333 0 205 23.667 251 71s69 111.666 69 192.999c0 76 -25 136 -75 180s-128.333 66 -235 66c-32 0 -79 -3.33301 -141 -10v-494z" />
    <glyph glyph-name="afii10060" unicode="&#x40b;" horiz-adv-x="1573" 
d="M1442 0h-264v426c0 88.667 -24.667 155.5 -74 200.5s-117 67.5 -203 67.5c-62 0 -126 -7.33301 -192 -22v-672h-260v1239h-400v225h1110v-225h-450v-358c83.333 14.667 159.666 22 228.999 22c158.667 0 282.334 -39.667 371.001 -119s133 -192 133 -338v-446z" />
    <glyph glyph-name="afii10061" unicode="&#x40c;" horiz-adv-x="1311" 
d="M1221 -6c-19.333 -4 -48.001 -6.00098 -86.001 -6.00098c-91.333 0 -160.333 22 -207 66s-79 116 -97 216c-24.667 140 -69.5 240.667 -134.5 302s-157.167 92 -276.5 92h-12v-664h-258v1464h258v-579h20c116 0 206.333 25.5 271 76.5s106.667 129.833 126 236.5
c18 97.333 47.333 167.833 88 211.5s106.334 65.5 197.001 65.5c36.667 0 67.334 -1.66699 92.001 -5v-231c-6.66699 1.33301 -21 2 -43 2c-30 0 -51.167 -7 -63.5 -21s-23.833 -46.667 -34.5 -98c-18 -86 -56.667 -160 -116 -222s-134 -103.333 -224 -124
c95.333 -28 171.666 -75.167 228.999 -141.5s97.666 -159.166 120.999 -278.499c12.667 -60 25.834 -97.167 39.501 -111.5s37.5 -21.5 71.5 -21.5c14 0 27 1.33301 39 4v-233zM974.999 1919l-223 -330h-199l168 330h254z" />
    <glyph glyph-name="afii10062" unicode="&#x40e;" horiz-adv-x="1272" 
d="M1260 1464c-82.667 -298.667 -186.498 -573.332 -311.498 -823.999s-245 -422.334 -360 -515.001s-266.833 -139 -455.5 -139v239c8 -1.33301 23.667 -2 47 -2c85.333 0 155.666 15.333 210.999 46s104.666 77 147.999 139l-525 1056h289l385 -852
c118.667 241.333 219.667 525.333 303 852h269zM1040 1892c-20 -100.667 -62.832 -177 -128.499 -229s-147.5 -78 -245.5 -78s-179.333 26 -244 78s-107 128.333 -127 229l209 43c15.333 -120 70.666 -180 165.999 -180c100.667 0 156 59.333 166 178z" />
    <glyph glyph-name="afii10145" unicode="&#x40f;" horiz-adv-x="1300" 
d="M1210 0h-413v-420h-234v420h-413v1464h258v-1237h544v1237h258v-1464z" />
    <glyph glyph-name="afii10017" unicode="&#x410;" horiz-adv-x="1305" 
d="M1010 0l-109 297h-502l-100 -297h-291l586 1485h113l589 -1485h-286zM649 1036l-176 -540h352z" />
    <glyph glyph-name="afii10018" unicode="&#x411;" horiz-adv-x="1225" 
d="M408 891c72 6.66699 135.333 9.99902 190 9.99902c170.667 0 303.5 -39.333 398.5 -118s142.5 -191.667 142.5 -339c0 -135.333 -47.5 -243.166 -142.5 -323.499s-227.833 -120.5 -398.5 -120.5h-448v1464h884v-225h-626v-348zM408 216.999c54 -4 101 -6 141 -6
c114.667 0 196.834 21.333 246.501 64s74.5 104 74.5 184c0 70 -22.667 126.333 -68 169s-127 64 -245 64c-46.667 0 -96.334 -2.66699 -149.001 -8v-467z" />
    <glyph glyph-name="afii10019" unicode="&#x412;" horiz-adv-x="1223" 
d="M598 0h-447.999v1464c230 10 368.333 15 415 15c151.333 0 270.166 -32.667 356.499 -98s129.5 -158.333 129.5 -279c0 -117.333 -61.667 -209 -185 -275c182 -62.667 273 -193.667 273 -393c0 -133.333 -50.333 -239 -151 -317s-230.667 -117 -390 -117zM410.001 1255
v-350c52 -2.66699 94.333 -4 127 -4c169.333 0 254 63.667 254 191c0 113.333 -77.333 170 -232 170c-40 0 -89.667 -2.33301 -149 -7zM410.001 702l0.00195312 -485c52.667 -4 95.667 -6 129 -6c108.667 0 190.667 18.5 246 55.5s83 103.833 83 200.5
c0 82 -23.833 142.167 -71.5 180.5s-132.834 57.5 -255.501 57.5c-46.667 0 -90.334 -1 -131.001 -3z" />
    <glyph glyph-name="afii10020" unicode="&#x413;" horiz-adv-x="1126" 
d="M1061 1235h-649v-1235h-262v1464h911v-229z" />
    <glyph glyph-name="afii10021" unicode="&#x414;" horiz-adv-x="1493" 
d="M1448 -420h-229v420h-959v-420h-229v635h100c80 103.333 161 247.5 243 432.5s158.667 457.167 230 816.5h680v-1249h164v-635zM1034 215v1036h-250c-34 -207.333 -85 -404.666 -153 -591.999s-142.333 -335.333 -223 -444h626z" />
    <glyph glyph-name="afii10022" unicode="&#x415;" horiz-adv-x="1180" 
d="M410 1235v-344h485v-221h-485v-439h663v-231h-923v1464h935v-229h-675z" />
    <glyph glyph-name="afii10024" unicode="&#x416;" horiz-adv-x="1911" 
d="M1819 -6c-18 -4 -45.999 -6.00195 -83.999 -6.00195c-83.333 0 -147 22.667 -191 68s-74 117.333 -90 216c-42 262.667 -165.667 394 -371 394v-666h-247v666c-214.667 0 -342.334 -130 -383.001 -390c-16 -100 -45.833 -173 -89.5 -219s-106.167 -69 -187.5 -69
c-38 0 -66 2 -84 6v231c10 -2.66699 22.333 -4 37 -4c31.333 0 54 7.33301 68 22s26 51.667 36 111c17.333 100 54.333 186.5 111 259.5s129 125.833 217 158.5c-175.333 28.667 -281.666 143.334 -318.999 344.001c-8.66699 45.333 -18.667 77.833 -30 97.5
s-32 29.5 -62 29.5c-22.667 0 -36.334 -0.666992 -41.001 -2v229c22.667 3.33301 52.667 5 90 5c82 0 142.5 -22 181.5 -66s66.5 -113.667 82.5 -209c35.333 -211.333 159.666 -317 372.999 -317v581h247v-581c102 0 184.5 26.667 247.5 80s102.833 131 119.5 233
c16 96.667 43.167 167.334 81.5 212.001s98.5 67 180.5 67c37.333 0 67.333 -1.66699 90 -5v-229c-5.33301 1.33301 -18.333 2 -39 2c-27.333 0 -47.666 -7.83301 -60.999 -23.5s-25 -48.834 -35 -99.501c-16.667 -86 -52.334 -160 -107.001 -222
s-122.667 -102.667 -204 -122c175.333 -59.333 282.333 -198.666 321 -417.999c10.667 -59.333 23.334 -97 38.001 -113s37.667 -24 69 -24c13.333 0 25 1.33301 35 4v-231z" />
    <glyph glyph-name="afii10025" unicode="&#x417;" horiz-adv-x="1141" 
d="M793 801c84.667 -30.667 149.499 -78.002 194.499 -142.002s67.5 -140.333 67.5 -229c0 -141.333 -49.833 -252.5 -149.5 -333.5s-236.167 -121.5 -409.5 -121.5c-174 0 -322.333 37.667 -445 113l113 227c104.667 -77.333 219.334 -116 344.001 -116
c88 0 156.667 20.667 206 62s74 97 74 167c0 86.667 -28.833 152.334 -86.5 197.001s-140.5 67 -248.5 67c-58.667 0 -108.667 -2 -150 -6v213c52 -5.33301 104 -8 156 -8c88.667 0 157.167 17.833 205.5 53.5s72.5 86.834 72.5 153.501c0 56 -21.5 98.667 -64.5 128
s-98.5 44 -166.5 44c-90.667 0 -191 -29.333 -301 -88l-90 215c147.333 62.667 284.333 94 411 94c146 0 261.333 -33.167 346 -99.5s127 -158.833 127 -277.5c0 -72.667 -18.5 -137 -55.5 -193s-87.167 -96 -150.5 -120z" />
    <glyph glyph-name="afii10026" unicode="&#x418;" horiz-adv-x="1438" 
d="M1286 0h-260v985l-766 -1008h-110v1487h260v-985l766 1008h110v-1487z" />
    <glyph glyph-name="afii10027" unicode="&#x419;" horiz-adv-x="1473" 
d="M1286 0h-260v985l-766 -1008h-110v1487h260v-985l766 1008h110v-1487zM1120 1892c-20 -100.667 -62.8311 -177 -128.498 -229s-147.834 -78 -246.501 -78c-97.333 0 -178.333 26 -243 78s-107 128.333 -127 229l209 43c15.333 -120 70.666 -180 165.999 -180
c100 0 155 59.333 165 178z" />
    <glyph glyph-name="afii10028" unicode="&#x41a;" horiz-adv-x="1311" 
d="M1221 -6c-19.333 -4 -48.001 -6.00098 -86.001 -6.00098c-91.333 0 -160.333 22 -207 66s-79 116 -97 216c-24.667 140 -69.5 240.667 -134.5 302s-157.167 92 -276.5 92h-12v-664h-258v1464h258v-579h20c116 0 206.333 25.5 271 76.5s106.667 129.833 126 236.5
c18 97.333 47.333 167.833 88 211.5s106.334 65.5 197.001 65.5c36.667 0 67.334 -1.66699 92.001 -5v-231c-6.66699 1.33301 -21 2 -43 2c-30 0 -51.167 -7 -63.5 -21s-23.833 -46.667 -34.5 -98c-18 -86 -56.667 -160 -116 -222s-134 -103.333 -224 -124
c95.333 -28 171.666 -75.167 228.999 -141.5s97.666 -159.166 120.999 -278.499c12.667 -60 25.834 -97.167 39.501 -111.5s37.5 -21.5 71.5 -21.5c14 0 27 1.33301 39 4v-233z" />
    <glyph glyph-name="afii10029" unicode="&#x41b;" horiz-adv-x="1430" 
d="M1278 0l-256.001 0.00488281v1243h-283c-20 -198.667 -50.833 -387.834 -92.5 -567.501s-91.5 -320.667 -149.5 -423s-123.833 -172.333 -197.5 -210s-162.5 -56.5 -266.5 -56.5v239c46.667 0 86.334 6.16699 119.001 18.5s66.5 40.166 101.5 83.499
s72.167 124.666 111.5 243.999s73.833 259.666 103.5 420.999s52.5 318.666 68.5 471.999h741v-1464z" />
    <glyph glyph-name="afii10030" unicode="&#x41c;" horiz-adv-x="1593" 
d="M1544 0h-252l-151 788l-295 -808h-92l-297 808l-158 -788h-250l295 1464h137l318 -987l309 987h137z" />
    <glyph glyph-name="afii10031" unicode="&#x41d;" horiz-adv-x="1401" 
d="M993 0v659h-583v-659h-260v1464h260v-573h583v573h256v-1464h-256z" />
    <glyph glyph-name="afii10032" unicode="&#x41e;" horiz-adv-x="1440" 
d="M80 745c0 208 57.167 384.333 171.5 529s267.5 217 459.5 217c208.667 0 369 -64.833 481 -194.5s168 -313.5 168 -551.5c0 -238.667 -58.333 -426.667 -175 -564s-281.667 -206 -495 -206c-198.667 0 -350 69.167 -454 207.5s-156 325.833 -156 562.5zM350 745
c0 -178 29.333 -312.167 88 -402.5s142.667 -135.5 252 -135.5c130 0 229.167 45.333 297.5 136s102.5 224.667 102.5 402c0 343.333 -126.333 515 -379 515c-117.333 0 -206.833 -46.333 -268.5 -139s-92.5 -218 -92.5 -376z" />
    <glyph glyph-name="afii10033" unicode="&#x41f;" horiz-adv-x="1362" 
d="M1210 0h-260v1235h-540v-1235h-260v1464h1060v-1464z" />
    <glyph glyph-name="afii10034" unicode="&#x420;" horiz-adv-x="1206" 
d="M410 539v-539h-260v1464c191.333 7.33301 293 11 305 11c228 0 396.167 -35.333 504.5 -106s162.5 -181.667 162.5 -333c0 -336 -198 -504 -594 -504c-30 0 -69.333 2.33301 -118 7zM410 1239l-0.00195312 -469c44.667 -4 79.334 -6 104.001 -6
c118.667 0 205.334 19.5 260.001 58.5s82 103.5 82 193.5c0 151.333 -122.333 227 -367 227c-36.667 0 -63 -1.33301 -79 -4z" />
    <glyph glyph-name="afii10035" unicode="&#x421;" horiz-adv-x="1253" 
d="M1153 1386l-105.998 -215c-58.667 59.333 -151.667 89 -279 89c-128 0 -229.667 -53 -305 -159s-113 -234 -113 -384s35 -272.5 105 -367.5s167.667 -142.5 293 -142.5c138 0 245.667 49 323 147l123 -211c-106.667 -112 -262.334 -168 -467.001 -168
c-206 0 -365.333 67.5 -478 202.5s-169 318.167 -169 549.5c0 214.667 62.167 395.667 186.5 543s286.166 221 485.499 221c165.333 0 299 -35 401 -105z" />
    <glyph glyph-name="afii10036" unicode="&#x422;" horiz-adv-x="1331" 
d="M784 1235v-1235h-260v1235h-465v229h1213v-229h-488z" />
    <glyph glyph-name="afii10037" unicode="&#x423;" horiz-adv-x="1272" 
d="M1260 1464c-82.667 -298.667 -186.498 -573.332 -311.498 -823.999s-245 -422.334 -360 -515.001s-266.833 -139 -455.5 -139v239c8 -1.33301 23.667 -2 47 -2c85.333 0 155.666 15.333 210.999 46s104.666 77 147.999 139l-525 1056h289l385 -852
c118.667 241.333 219.667 525.333 303 852h269z" />
    <glyph glyph-name="afii10038" unicode="&#x424;" horiz-adv-x="1618" 
d="M936 1356c188.667 -15.333 335.502 -76.667 440.502 -184s157.5 -248.666 157.5 -423.999c0 -172 -53.5 -315.5 -160.5 -430.5s-252.833 -179.167 -437.5 -192.5v-158h-252v158c-188.667 15.333 -335.834 76.833 -441.501 184.5s-158.5 249.5 -158.5 425.5
c0 171.333 53.667 314.166 161 428.499s253.666 178.5 438.999 192.5v157h252v-157zM932.002 316.999c116.667 14 205.834 57.8311 267.501 131.498s92.5 172.5 92.5 296.5c0 116.667 -31.333 211.834 -94 285.501s-151.334 117.834 -266.001 132.501v-846zM688.002 316.997
v845.998c-117.333 -13.333 -207 -56.666 -269 -129.999s-93 -172 -93 -296c0 -116 31.667 -211.167 95 -285.5s152.333 -119.166 267 -134.499z" />
    <glyph glyph-name="afii10039" unicode="&#x425;" horiz-adv-x="1253" 
d="M954 0l-346 526l-319 -526h-273l441 760l-404 706l264 -2l297 -493l328 493h272l-464 -708l487 -756h-283z" />
    <glyph glyph-name="afii10040" unicode="&#x426;" horiz-adv-x="1393" 
d="M1348 -420h-234v420h-964v1464h258v-1237h516v1237h256v-1237h168v-647z" />
    <glyph glyph-name="afii10041" unicode="&#x427;" horiz-adv-x="1296" 
d="M1145 0l-259.998 -0.000976562v582c-86.667 -19.333 -172.667 -29 -258 -29c-158.667 0 -282.334 39.833 -371.001 119.5s-133 192.834 -133 339.501v452h270v-436c0 -85.333 23.167 -150.333 69.5 -195s112.833 -67 199.5 -67c71.333 0 145.666 9.66699 222.999 29v669
h260v-1464z" />
    <glyph glyph-name="afii10042" unicode="&#x428;" horiz-adv-x="1905" 
d="M1753 0h-1603v1464h247v-1247h432v1247h248v-1247h432v1247h244v-1464z" />
    <glyph glyph-name="afii10043" unicode="&#x429;" horiz-adv-x="1962" 
d="M1917 -420h-231v420h-1536v1464h247v-1247h432v1247h248v-1247h432v1247h244v-1241h164v-643z" />
    <glyph glyph-name="afii10044" unicode="&#x42a;" horiz-adv-x="1589" 
d="M778 913c65.333 8.66699 131.667 12.999 199 12.999c168.667 0 299.167 -40.167 391.5 -120.5s138.5 -195.833 138.5 -346.5c0 -139.333 -47.167 -250.666 -141.5 -333.999s-225.833 -125 -394.5 -125h-449v1237h-469v227h725v-551zM778.001 216.999
c73.333 -4 118.334 -6 135.001 -6c127.333 0 214.166 22.833 260.499 68.5s69.5 110.167 69.5 193.5c0 162.667 -105.667 244 -317 244c-34.667 0 -84 -3.33301 -148 -10v-490z" />
    </font>
</defs>
</svg>
